История Рикки / Story Of Ricky / Riki-Oh / Lik Wong (Нгай Кай Лэм / Ngai Kai Lam) [1991, Гонконг, боевые искусства, драма, ужасы, HDRip] AVO (С. Кузнецов) + AVO (А. Дольский) + Original Chi

Ответить на тему
 
Автор Сообщение

user ®

Стаж: 13 лет

Сообщений: 15071

Пост Пост: #1 от 10-Июн-2014 10:35

[Цитировать]

История Рикки / Story Of Ricky / Riki-Oh / Lik Wong
Страна: Гонконг
Студия: Diagonal Pictures, Golden Harvest Company, Paragon Films Ltd.
Жанр: боевые искусства, драма, ужасы
Год выпуска: 1991
Продолжительность: 01:32:11
Перевод 1: Авторский (одноголосый закадровый) С. Кузнецов
Перевод 2: Авторский (одноголосый закадровый) А. Дольский
Cубтитры: нет
Оригинальная аудиодорожка: китайский
Режиссер: Нгай Кай Лэм / Ngai Kai Lam
В ролях: Сиу-Вонг Фан, Муи Сэнг Фан, Ка-Куй Хо, Юкари Ошима, Френки Чан
Описание: Этот культовый фильм, чрезвычайно редкий у нас в России, критики часто называют «азиатской Живой мертвечиной». Однако с той лишь поправкой, что вышел он на год раньше. Сюжет прост до предела. Это экранизация китайского комикса про супер-героя. В далеком 2001 году, землей правят корпорации и все институты власти включая тюрьмы безраздельно принадлежат их хозяевам. У молодого парня по имени Рикки умерли родители, однажды придя к ним на могилу, он встретил там своего старого дядю - монаха шаолиня и тот обучил его всем таинствам кунг-фу. На его теле раны начали затягиваться предельно быстро, а сам он научился быстро драться и пробивать людей насквозь ударом кулака. Его девушку изнасиловали наркоманы и она не выдержав позора покончила с собой. Рикки отомстил разбив голову лидеру их банды, за что попал в тюрьму, состоящую из четырех блоков в каждом из которых правит мастер кунг-фу, в совершенстве владеющий одним из стилей. Но эти мастера ужасно жестоки, а во главе стоит начальник тюрьмы. Перед тем как сбежать Рикки решает навести на зоне порядок и отпетушить беспредельщиков. Все идет по строгим канонам видеоигры и заканчивается битвой с боссом в финале...
II Сэмпл II IMDB II
Доп. информация:
Исходник: The.Story.of.Ricky.1991.BluRay.720p.DTS.2Audio.x264-CHD
За авторский перевод Сергея Кузнецова спасибо Тарантиныч и Chow
За авторский перевод Андрея Дольского спасибо one more user
Качество видео: HDRip
Формат видео: AVI
Видео: Xvid 720x400 (16:9) 24.0fps Bit rate 2363Kbps b/p 0.342
Аудио 1: AC3 48.0 KHz 2ch. 192kbps rus avo
Аудио 2: AC3 48.0 KHz 2ch. 192kbps rus avo
Аудио 3: AC3 48.0 KHz 6ch. 448kbps chi
MediaInfo
Общее
Полное имя : E:\torrent\The.Story.of.Ricky.1991.HDRip.avi
Формат : AVI
Формат/Информация : Audio Video Interleave
Профиль формата : OpenDML
Размер файла : 2,07 Гбайт
Продолжительность : 1 ч. 32 м.
Общий поток : 3219 Кбит/сек
Программа кодирования : VirtualDubMod 1.5.10.3 (build 2550/release)
Библиотека кодирования : VirtualDubMod build 2550/release
Видео
Идентификатор : 0
Формат : MPEG-4 Visual
Профиль формата : Advanced Simple@L5
Параметр BVOP формата : 2
Параметр QPel формата : Нет
Параметр GMC формата : Без точки перехода
Параметр матрицы формата : Default (H.263)
Идентификатор кодека : XVID
Идентификатор кодека/Подсказка : XviD
Продолжительность : 1 ч. 32 м.
Битрейт : 2363 Кбит/сек
Ширина : 720 пикселей
Высота : 400 пикселей
Соотношение сторон : 16:9
Частота кадров : 24,000 кадра/сек
Цветовое пространство : YUV
Субдискретизация насыщенности : 4:2:0
Битовая глубина : 8 бит
Тип развёртки : Прогрессивная
Метод сжатия : С потерями
Бит/(Пиксели*Кадры) : 0.342
Размер потока : 1,52 Гбайт (73%)
Библиотека кодирования : XviD 1.2.1 (UTC 2008-12-04)
Аудио #1
Идентификатор : 1
Формат : AC-3
Формат/Информация : Audio Coding 3
Расширение режима : CM (complete main)
Параметр Endianness формата : Big
Идентификатор кодека : 2000
Продолжительность : 1 ч. 32 м.
Вид битрейта : Постоянный
Битрейт : 192 Кбит/сек
Каналы : 2 канала
Расположение каналов : Front: L R
Частота : 48,0 КГц
Битовая глубина : 16 бит
Метод сжатия : С потерями
Размер потока : 127 Мбайт (6%)
Выравнивание : Разделение по промежуткам
Продолжительность промежутка : 42 мс. (1,00 видеокадр)
Время предзагрузки промежутка : 500 мс.
Аудио #2
Идентификатор : 2
Формат : AC-3
Формат/Информация : Audio Coding 3
Расширение режима : CM (complete main)
Параметр Endianness формата : Big
Идентификатор кодека : 2000
Продолжительность : 1 ч. 32 м.
Вид битрейта : Постоянный
Битрейт : 192 Кбит/сек
Каналы : 2 канала
Расположение каналов : Front: L R
Частота : 48,0 КГц
Битовая глубина : 16 бит
Метод сжатия : С потерями
Размер потока : 127 Мбайт (6%)
Выравнивание : Разделение по промежуткам
Продолжительность промежутка : 42 мс. (1,00 видеокадр)
Время предзагрузки промежутка : 500 мс.
Аудио #3
Идентификатор : 3
Формат : AC-3
Формат/Информация : Audio Coding 3
Расширение режима : CM (complete main)
Параметр Endianness формата : Big
Идентификатор кодека : 2000
Продолжительность : 1 ч. 32 м.
Вид битрейта : Постоянный
Битрейт : 448 Кбит/сек
Каналы : 6 каналов
Расположение каналов : Front: L C R, Side: L R, LFE
Частота : 48,0 КГц
Битовая глубина : 16 бит
Метод сжатия : С потерями
Размер потока : 295 Мбайт (14%)
Выравнивание : Разделение по промежуткам
Продолжительность промежутка : 42 мс. (1,00 видеокадр)
Время предзагрузки промежутка : 500 мс.
Скриншот c названием фильма Скриншоты
Скачать

Скачать торрент! История Рикки / Story Of Ricky / Riki-Oh / Lik Wong (Нгай Кай Лэм / Ngai Kai Lam) [1991, Гонконг, боевые искусства, драма, ужасы, HDRip] AVO (С. Кузнецов) + AVO (А. Дольский) + Original Chi

Как скачивать? · Что такое торрент? · Рейтинг и ограничения

Сайт не распространяет и не хранит электронные версии произведений, а лишь предоставляет доступ к создаваемому пользователями каталогу ссылок на торрент-файлы, которые содержат только списки хеш-сумм

[Профиль] [ЛС]
Показать сообщения:    
Ответить на тему

Текущее время: Сегодня 11:10

Часовой пояс: GMT + 4



Вы не можете начинать темы
Вы не можете отвечать на сообщения
Вы не можете редактировать свои сообщения
Вы не можете удалять свои сообщения
Вы не можете голосовать в опросах
Вы не можете прикреплять файлы к сообщениям
Вы не можете скачивать файлы