Дорога / Highway (Имтиаз Али / Imtiaz Ali) [2014, Индия, Драма, BDRip-AVC] VO + Sub Rus

Ответить на тему
 
Автор Сообщение

user ®

Стаж: 12 лет

Сообщений: 15092

Пост Пост: #1 от 10-Июн-2014 10:35

[Цитировать]

Дорога / Highway
Страна: Индия
Жанр: Драма
Год выпуска: 2014
Продолжительность: 02:13:05
Перевод: Одноголосый закадровый PashaUp
Cубтитры: русские Soniya
Оригинальная аудиодорожка: нет
Режиссер: Имтиаз Али / Imtiaz Ali
В ролях: Алия Бхатт, Рандип Худа, Дургеш Кумар, Прадип Нагар, Сахарш Кумар Шукла, Хемант Махаур, Арджун Малхотра
Описание: Вира накануне своей свадьбы мечтает вырваться на волю хоть на часок - приготовления к торжеству ей порядком наскучили и она хочет глотнуть свежего воздуха вдали от кузин и тетушек, которые только и говорят о нарядах и украшениях. Она оказалась не в то время не в том месте, и вся её жизнь перевернута с ног на голову. А может быть, и наоборот... Ведь никому неизвестно, где лежит дорога, которая ведёт к его судьбе.

Сэмпл: http://multi-up.com/979401
Качество видео: BDRip-AVC
Формат видео: MKV
Видео: h264;880x374;Aspect Ratio: 47:20(2.35:1);1962kbps;23.976fps
Исходник:Highway(2014)BD50-Blu-Ray-1080P- AVC-MSUBS-Team Telly Exclusive
Аудио: AC3;Sample Rate:48000Hz;Channel:6(5.1);384kbps
Формат субтитров: softsub (SRT)
MediaInfo
General
Unique ID : 203440836406123511253127393411215647035 (0x990D47A5DC2D8A10B69767C3086FE13B)
Complete name : D:\Doroga.mkv
Format : Matroska
Format version : Version 4 / Version 2
File size : 2.18 GiB
Duration : 2h 13mn
Overall bit rate : 2 348 Kbps
Encoded date : UTC 2014-06-09 21:02:43
Writing application : mkvmerge v6.1.0 ('Old Devil') built on Mar 4 2013 09:10:42
Writing library : libebml v1.3.0 + libmatroska v1.4.0
Video
ID : 1
Format : AVC
Format/Info : Advanced Video Codec
Format profile : High@L4.1
Format settings, CABAC : Yes
Format settings, ReFrames : 7 frames
Codec ID : V_MPEG4/ISO/AVC
Duration : 2h 13mn
Bit rate : 1 962 Kbps
Width : 880 pixels
Height : 374 pixels
Display aspect ratio : 2.35:1
Frame rate mode : Constant
Frame rate : 23.976 fps
Color space : YUV
Chroma subsampling : 4:2:0
Bit depth : 8 bits
Scan type : Progressive
Bits/(Pixel*Frame) : 0.249
Stream size : 1.78 GiB (82%)
Writing library : x264 core 142 Рип от KinoCollection
Encoding settings : cabac=1 / ref=7 / deblock=1:-3:-3 / analyse=0x3:0x113 / me=umh / subme=11 / psy=1 / fade_compensate=0.00 / psy_rd=1.00:0.01 / mixed_ref=1 / me_range=32 / chroma_me=1 / trellis=2 / 8x8dct=1 / cqm=0 / deadzone=21,11 / fast_pskip=1 / chroma_qp_offset=-3 / threads=6 / lookahead_threads=1 / sliced_threads=0 / nr=0 / decimate=1 / interlaced=0 / bluray_compat=0 / constrained_intra=0 / fgo=0 / bframes=16 / b_pyramid=2 / b_adapt=2 / b_bias=0 / direct=3 / weightb=1 / open_gop=1 / weightp=2 / keyint=240 / keyint_min=23 / scenecut=40 / intra_refresh=0 / rc_lookahead=60 / rc=2pass / mbtree=1 / bitrate=1962 / ratetol=1.0 / qcomp=0.60 / qpmin=0 / qpmax=69 / qpstep=4 / cplxblur=20.0 / qblur=0.5 / ip_ratio=1.40 / aq=1:1.00 / zones=46735,50410,b=2
Language : English
Default : Yes
Forced : No
Audio
ID : 2
Format : AC-3
Format/Info : Audio Coding 3
Mode extension : CM (complete main)
Format settings, Endianness : Big
Codec ID : A_AC3
Duration : 2h 13mn
Bit rate mode : Constant
Bit rate : 384 Kbps
Channel(s) : 6 channels
Channel positions : Front: L C R, Side: L R, LFE
Sampling rate : 48.0 KHz
Bit depth : 16 bits
Compression mode : Lossy
Stream size : 366 MiB (16%)
Language : Russian
Default : Yes
Forced : No
Text
ID : 3
Format : UTF-8
Codec ID : S_TEXT/UTF8
Codec ID/Info : UTF-8 Plain Text
Language : Russian
Default : No
Forced : No
Menu
00:00:00.000 : :Chapter 01
00:27:32.984 : :Chapter 02
00:33:01.938 : :Chapter 03
00:51:02.934 : :Chapter 04
01:04:32.952 : :Chapter 05
01:15:05.334 : :Chapter 06
01:22:22.354 : :Chapter 07
01:22:33.949 : :Chapter 08
01:30:49.986 : :Chapter 09
01:38:45.920 : :Chapter 10
01:56:56.134 : :Chapter 11
02:05:39.907 : :Chapter 12
02:08:28.283 : :Chapter 13
Скриншот c названием фильма Скриншоты
Скачать

Скачать торрент! Дорога / Highway (Имтиаз Али / Imtiaz Ali) [2014, Индия, Драма, BDRip-AVC] VO + Sub Rus

Как скачивать? · Что такое торрент? · Рейтинг и ограничения

Сайт не распространяет и не хранит электронные версии произведений, а лишь предоставляет доступ к создаваемому пользователями каталогу ссылок на торрент-файлы, которые содержат только списки хеш-сумм

[Профиль] [ЛС]
Показать сообщения:    
Ответить на тему

Текущее время: Сегодня 06:52

Часовой пояс: GMT + 4



Вы не можете начинать темы
Вы не можете отвечать на сообщения
Вы не можете редактировать свои сообщения
Вы не можете удалять свои сообщения
Вы не можете голосовать в опросах
Вы не можете прикреплять файлы к сообщениям
Вы не можете скачивать файлы