Ной / Noah (Даррен Аронофски / Darren Aronofsky) [2014, драма, приключения, фэнтези, CAMRip] dub

Ответить на тему
 
Автор Сообщение

user ®

Стаж: 7 лет 7 месяцев

Сообщений: 20008

Пост Пост: #1 от 10-Июн-2014 10:35

[Цитировать]

Ной / Noah

Год выпуска:
2014
Страна: США
Жанр: Драма, приключения, фэнтези
Продолжительность: 02:02:01
Перевод: Дублированный
Субтитры: Китайские
В ролях: Расселл Кроу, Эмма Уотсон, Логан Лерман, Дженнифер Коннелли, Энтони Хопкинс, Дакота Гойо, Дуглас Бут, Кевин Дюран, Бэрри Слоун, Соната Висоцкайте
Режиссёр: Даррен Аронофски
Описание: В этом фильме, главная роль в котором досталась Расселу Кроу, зрителю дается возможность, вместе с главными героями пережить библейскую историю о мужественном и мудром человеке, по имени Ной. Мир по уши погряз в грехах и насилии, Господь решил очистить Землю, оставив только избранных. Грядет всемирный потоп, наш герой начинает строить большой ковчег, но никто ему не верит, больше того, многие считают Нойа, просто сумасшедшим. Его уже не остановить, он должен выполнить важную миссию, после которой мор возродиться заново. Собрав родных и близких, множество зверей и птиц, он отправиться в опасное путешествие на огромном ковчеге..
Качество: CAMRip *PROPER* | Сэмпл
Формат: AVI
Видео кодек: XviD
Аудио кодек: AC3
Видео: 720x352 (2.05:1), 25 fps, XviD build 50, 1993 kbps avg, 0.31 bit/pixel
Аудио: 48 kHz, AC3 Dolby Digital, 2/0 (L,R) ch, 224 kbps
Скриншоты MediaInfo
Общее
Полное имя : D:\Noah.2014.D.CAMRip.PROPER.2100Mb.avi
Формат : AVI
Формат/Информация : Audio Video Interleave
Профиль формата : OpenDML
Размер файла : 2,05 Гбайт
Продолжительность : 2 ч. 12 м.
Общий поток : 2224 Кбит/сек
Программа кодирования : VirtualDubMod 1.5.10.2 (build 2540/release)
Библиотека кодирования : VirtualDubMod build 2540/release
Видео
Идентификатор : 0
Формат : MPEG-4 Visual
Профиль формата : Advanced Simple@L5
Параметр BVOP формата : 2
Параметр QPel формата : Нет
Параметр GMC формата : Без точки перехода
Параметр матрицы формата : Выборочная
Идентификатор кодека : XVID
Идентификатор кодека/Подсказка : XviD
Продолжительность : 2 ч. 12 м.
Битрейт : 1988 Кбит/сек
Ширина : 720 пикселей
Высота : 352 пикселя
Соотношение сторон : 2,045
Частота кадров : 25,000 кадров/сек
Цветовое пространство : YUV
Субдискретизация насыщенности : 4:2:0
Битовая глубина : 8 бит
Тип развёртки : Прогрессивная
Метод сжатия : С потерями
Бит/(Пиксели*Кадры) : 0.314
Размер потока : 1,83 Гбайт (89%)
Библиотека кодирования : XviD 1.2.1 (UTC 2008-12-04)
Аудио
Идентификатор : 1
Формат : AC-3
Формат/Информация : Audio Coding 3
Расширение режима : CM (complete main)
Параметр Endianness формата : Big
Идентификатор кодека : 2000
Продолжительность : 2 ч. 12 м.
Вид битрейта : Постоянный
Битрейт : 224 Кбит/сек
Каналы : 2 канала
Расположение каналов : Front: L R
Частота : 48,0 КГц
Битовая глубина : 16 бит
Метод сжатия : С потерями
Размер потока : 212 Мбайт (10%)
Выравнивание : Разделение по промежуткам
Продолжительность промежутка : 40 мс. (1,00 видеокадр)
Время предзагрузки промежутка : 500 мс.
Скачать

Скачать торрент!

Как скачивать? · Что такое торрент? · Рейтинг и ограничения

Сайт не распространяет и не хранит электронные версии произведений, а лишь предоставляет доступ к создаваемому пользователями каталогу ссылок на торрент-файлы, которые содержат только списки хеш-сумм

[Профиль] [ЛС]
Показать сообщения:    
Ответить на тему

Текущее время: Сегодня 17:49

Часовой пояс: GMT + 4



Вы не можете начинать темы
Вы не можете отвечать на сообщения
Вы не можете редактировать свои сообщения
Вы не можете удалять свои сообщения
Вы не можете голосовать в опросах
Вы не можете прикреплять файлы к сообщениям
Вы не можете скачивать файлы