Караульный пост 506 / The Guard Post / GP506 (Су-чанг Куенг / Su-chang Kong) [2008 г., Южная Корея, ужасы, триллер, BDRip] AVO (Сербин)

Ответить на тему
 
Автор Сообщение

user ®

Стаж: 11 лет

Сообщений: 15151

Пост Пост: #1 от 10-Июн-2014 07:25

[Цитировать]

--Караульный пост 506 / GP506«Don't believe anything you see...»-- Страна: Южная Корея
Жанр: ужасы, триллер
Год выхода: 2008
Продолжительность: 02:01:05
Перевод: авторский (Юрий Сербин)
Субтитры: нет
Оригинальная аудиодорожка: отсутствует
Режиссер: Су-чанг Куенг
В ролях: Чхон Хо Чжин, Чо Хуюн-джэй, Чхве Гю Хван, Бён-Чхоль До, Чо Чжин Ун, Пён-чхоль Ким, Сон-пом Ким, Ку Сон-хван, Чхоль-хи Ли, Ли Чжон Хон
О фильме: Когда отряд Караульного поста 506 не вышел на связь раз в полчаса, как обычно, власти заволновались… На этот пост прибывает разведывательный отряд, чтобы разобраться, что там случилось…

Релиз от -
Автор: Gellard
Сэмпл: скачать
Качество: BDRip (источник: HDCLUB / Blu-Ray Remux / 1080p)
Формат: AVI
Видео: 704x384 (1.83:1), 24 fps, XviD build 65 ~2123 kbps avg, 0.33 bit/pixel
Аудио: 48 kHz, AC3 Dolby Digital, 3/2 (L,C,R,l,r) + LFE ch, 448.00 kbps avg-
-
Скриншоты MediaInfo
General
Complete name                            : Karaulnyj.post.506.2008.RUS.BDRip.XviD.AC3.-HQCLUB.avi
Format                                   : AVI
Format/Info                              : Audio Video Interleave
Format profile                           : OpenDML
File size                                : 2.18 GiB
Duration                                 : 2h 1mn
Overall bit rate                         : 2 579 Kbps
Movie name                               : Караульный пост 506 / The Guard Post / GP506 (2008) BDRip
Director                                 : Gellard
Genre                                    : ужасы, триллер
Writing application                      : VirtualDubMod 1.5.10.2 (build 2542/release)
Copyright                                : HQCLUB
Comment                                  : 08.06.2014
Video
ID                                       : 0
Format                                   : MPEG-4 Visual
Format profile                           : Advanced Simple@L5
Format settings, BVOP                    : 1
Format settings, QPel                    : No
Format settings, GMC                     : No warppoints
Format settings, Matrix                  : Custom
Codec ID                                 : XVID
Codec ID/Hint                            : XviD
Duration                                 : 2h 1mn
Bit rate                                 : 2 119 Kbps
Width                                    : 704 pixels
Height                                   : 384 pixels
Display aspect ratio                     : 1.85:1
Frame rate                               : 24.000 fps
Color space                              : YUV
Chroma subsampling                       : 4:2:0
Bit depth                                : 8 bits
Scan type                                : Progressive
Compression mode                         : Lossy
Bits/(Pixel*Frame)                       : 0.327
Stream size                              : 1.79 GiB (82%)
Writing library                          : XviD 65
Audio
ID                                       : 1
Format                                   : AC-3
Format/Info                              : Audio Coding 3
Mode extension                           : CM (complete main)
Format settings, Endianness              : Big
Codec ID                                 : 2000
Duration                                 : 2h 1mn
Bit rate mode                            : Constant
Bit rate                                 : 448 Kbps
Channel count                            : 6 channels
Channel positions                        : Front: L C R, Side: L R, LFE
Sampling rate                            : 48.0 KHz
Bit depth                                : 16 bits
Compression mode                         : Lossy
Stream size                              : 388 MiB (17%)
Alignment                                : Split accross interleaves
Interleave, duration                     : 42 ms (1.00 video frame)
Interleave, preload duration             : 500 ms
Скачать

Скачать торрент! Караульный пост 506 / The Guard Post / GP506 (Су-чанг Куенг / Su-chang Kong) [2008 г., Южная Корея, ужасы, триллер, BDRip] AVO (Сербин)

Как скачивать? · Что такое торрент? · Рейтинг и ограничения

Сайт не распространяет и не хранит электронные версии произведений, а лишь предоставляет доступ к создаваемому пользователями каталогу ссылок на торрент-файлы, которые содержат только списки хеш-сумм

[Профиль] [ЛС]
Показать сообщения:    
Ответить на тему

Текущее время: Сегодня 10:54

Часовой пояс: GMT + 4



Вы не можете начинать темы
Вы не можете отвечать на сообщения
Вы не можете редактировать свои сообщения
Вы не можете удалять свои сообщения
Вы не можете голосовать в опросах
Вы не можете прикреплять файлы к сообщениям
Вы не можете скачивать файлы