Любовь сквозь время / Winter\'s Tale (Акива Голдсман / Akiva Goldsman) [2014, США, фэнтези, драма, мелодрама, детектив, BDRip] Dub

Ответить на тему
 
Автор Сообщение

user ®

Стаж: 7 лет 7 месяцев

Сообщений: 20008

Пост Пост: #1 от 09-Июн-2014 17:00

[Цитировать]

Любовь сквозь время / Winter's Tale-«Когда случаются чудеса» -Страна: США
Студия: Warner Bros. Pictures, Village Roadshow Pictures, Weed Road Pictures
Жанр: фэнтези, драма, мелодрама, детектив
Год выпуска: 2014
Продолжительность: 01:58:05
Перевод: Профессиональный (дублированный) - | iTunes |
Cубтитры: нет
Оригинальная аудиодорожка: нет-Режиссер: Акива Голдсман / Akiva Goldsman
В ролях: Колин Фаррелл, Рассел Кроу, Дженнифер Коннелли, Уилл Смит, Уильям Хёрт, Джессика Браун-Финдли, МакКайла Твиггс, Ева Мари Сэйнт, Рипли Собо, Кевин Корригэн, Джошуа Генри, Финн Уиттрок.
Описание: Питер Лэйк — талантливый вор, который и подумать не мог, что его собственное сердце украдет очаровательная Беверли Пенн. Но их любовь родилась под несчастливой звездой: Беверли угасает на глазах от неизлечимой болезни, а Питеру суждена куда более жестокая смерть от рук его давнего наставника, демона Перли Сомса. Питер отчаянно пытается спасти свою истинную любовь: сквозь века, вопреки силам тьмы, несмотря на то, что Перли делает все от него зависящее, чтобы одержать верх, ведь победитель получает все, а проигравший будет проклят навеки.-Автор рипа: _Flash- -Качество видео: BDRip | Winters.Tale.2014.1080p.BDRemux |
Формат видео: AVI
Видео: XviD 73, 720x304, 23,976 fps, 1562 Кbps, 0.300 bit/pixel
Аудио: 48 kHz, AC3 Dolby Digital, 2/0 (L,R) ch, ~192.00 kbps-

Дополнительно о фильме:
Производство, студия дубляжа, прокат:
Знаете ли вы, что...
MediaInfo

Общее
Полное имя : D:\Winters.Tale.2014.BDRip.By_Flash.avi
Формат : AVI
Формат/Информация : Audio Video Interleave
Размер файла : 1,45 Гбайт
Продолжительность : 1 ч. 58 м.
Общий поток : 1763 Кбит/сек
Видео
Идентификатор : 0
Формат : MPEG-4 Visual
Профиль формата : Advanced Simple@L5
Параметр BVOP формата : 1
Параметр QPel формата : Нет
Параметр GMC формата : Без точки перехода
Параметр матрицы формата : Выборочная
Идентификатор кодека : XVID
Идентификатор кодека/Подсказка : XviD
Продолжительность : 1 ч. 58 м.
Битрейт : 1562 Кбит/сек
Ширина : 720 пикселей
Высота : 304 пикселя
Соотношение сторон : 2,35:1
Частота кадров : 23,976 кадра/сек
Цветовое пространство : YUV
Субдискретизация насыщенности : 4:2:0
Битовая глубина : 8 бит
Тип развёртки : Прогрессивная
Метод сжатия : С потерями
Бит/(Пиксели*Кадры) : 0.298
Размер потока : 1,29 Гбайт (89%)
Библиотека кодирования : XviD 73
Аудио
Идентификатор : 1
Формат : AC-3
Формат/Информация : Audio Coding 3
Расширение режима : CM (complete main)
Параметр Endianness формата : Big
Идентификатор кодека : 2000
Продолжительность : 1 ч. 58 м.
Вид битрейта : Постоянный
Битрейт : 192 Кбит/сек
Каналы : 2 канала
Расположение каналов : Front: L R
Частота : 48,0 КГц
Битовая глубина : 16 бит
Метод сжатия : С потерями
Размер потока : 162 Мбайт (11%)
Выравнивание : Разделение по промежуткам
Продолжительность промежутка : 42 мс. (1,00 видеокадр)
Время предзагрузки промежутка : 500 мс.
Скриншот c названием фильма Скриншоты Сравнение
http://screenshotcomparison.com/comparison/78327/picture:0
релиз конкурента - [url=http://***/forum/viewtopic.php?t=4754324]http://***/forum/viewtopic.php?t=4754324[/url]
Скачать

Скачать торрент!

Как скачивать? · Что такое торрент? · Рейтинг и ограничения

Сайт не распространяет и не хранит электронные версии произведений, а лишь предоставляет доступ к создаваемому пользователями каталогу ссылок на торрент-файлы, которые содержат только списки хеш-сумм

[Профиль] [ЛС]
Показать сообщения:    
Ответить на тему

Текущее время: Сегодня 12:00

Часовой пояс: GMT + 4



Вы не можете начинать темы
Вы не можете отвечать на сообщения
Вы не можете редактировать свои сообщения
Вы не можете удалять свои сообщения
Вы не можете голосовать в опросах
Вы не можете прикреплять файлы к сообщениям
Вы не можете скачивать файлы