Водная жизнь / The Life Aquatic With Steve Zissou (Уэс Андерсон / Wes Anderson) [2004, США, комедия, драма, приключения, BDRip 720p] [Criterion Collection] MVO + DVO + Sub (Rus, Eng) + Original Eng

Ответить на тему
 
Автор Сообщение

user ®

Стаж: 7 лет 7 месяцев

Сообщений: 20008

Пост Пост: #1 от 09-Июн-2014 11:55

[Цитировать]

Водная жизнь / The Life Aquatic With Steve Zissou
Страна: США
Жанр: комедия, драма, приключения
Год выпуска: 2004
Продолжительность: 01:58:45
Перевод: Профессиональный (многоголосый закадровый)
Перевод: Профессиональный (двухголосый закадровый) | Tycoon-studio
Cубтитры: русские, английские
Оригинальная аудиодорожка: английский-Режиссер: Уэс Андерсон / Wes Anderson
В ролях: Кейт Бланшетт, Билл Мюррей, Оуэн Уилсон, Джефф Голдблюм, Анжелика Хьюстон, Уиллем Дефо, Майкл Гэмбон, Ноа Тейлор, Бад Корт, Робин Коэн, Варис Ахлувалиа, Мэттью Грей Габлер, Сеймур Кассель, Ноа Баумбах
Описание: Океанолог Стив Зиссу при поддержке бессменной команды снимает документальные фильмы о водной среде и ее обитателях. На премьере своей новой картины, в которой запечатлена гибель друга и партнера Стива от зубов акулы-ягуара, Зиссу публично обещает разыскать животное и расправиться с ним, по его словам, в отместку. Благодаря непререкаемому авторитету исследователя мало кого смутил тот факт, что, кроме него самого, эту неизвестную науке амфибию в тот трагический миг никто из присутствующих не видел. Поэтому приготовления к сомнительному, но, вполне вероятно, полному приключений путешествию, в котором к ученому и его соратникам присоединяется незаконнорожденный сын Зиссу, начинаются.
IMDb || КиноПоиск-Тип релиза: BDRip 720p [LolHD]
Контейнер: MKV
Видео: x264/AVC, 1280x548 at 23.976 fps, 8674 kbps
Аудио#1: Russian: 48 kHz, AC3, 5.1 ch, 448 kbps
Аудио#2: Russian: 48 kHz, AC3, 5.1 ch, 384 kbps |Tycoon-studio
Аудио#3: English: 48 kHz, AC3, 5.1 ch, 640 kbps
Аудио#4: English: 48 kHz, AC3, 2.0 ch, 192 kbps |Commentary by Wes Anderson and Noah Baumbach
Формат субтитров: softsub (SRT)
Сэмпл
MediaInfo
x264 & NOTES
x264
x264 [info]: frame I:1139 Avg QP:15.55 size:139102
x264 [info]: frame P:34780 Avg QP:16.28 size: 70191
x264 [info]: frame B:134902 Avg QP:17.42 size: 39356
x264 [info]: consecutive B-frames: 1.6% 2.6% 6.5% 13.2% 14.9% 48.9% 6.5% 2.1% 1.5% 0.8% 0.6% 0.5% 0.4%
x264 [info]: SSIM Mean Y:0.9835856 (17.848db)!encoded 170821 frames, 3.98 fps, 8880.50 kb/s, duration 11:55:55.94
NOTES
Dirty lines fixed with BalanceBorders!
General
Unique ID : 212110971514227868286387588887870904402 (0x9F93164FEFB4CFEB8A76BDB267A71852)
Complete name : N:\Rutracker\Водная жизнь\The.Life.Aquatic.with.Steve.Zissou.2004.Criterion.720p-LolHD. rutracker.mkv
Format : Matroska
Format version : Version 2
File size : 8.75 GiB
Duration : 1h 58mn
Overall bit rate : 10.5 Mbps
Movie name : Release for RuTracker
Encoded date : UTC 2014-06-07 00:24:01
Writing application : mkvmerge v5.0.1 ('Es ist Sommer') built on Nov 6 2011 16:23:40
Writing library : libebml v1.2.2 + libmatroska v1.3.0
Video
ID : 1
Format : AVC
Format/Info : Advanced Video Codec
Format profile : High@L4.1
Format settings, CABAC : Yes
Format settings, ReFrames : 11 frames
Codec ID : V_MPEG4/ISO/AVC
Duration : 1h 58mn
Bit rate : 8 674 Kbps
Width : 1 280 pixels
Height : 548 pixels
Display aspect ratio : 2.35:1
Frame rate mode : Constant
Frame rate : 23.976 fps
Color space : YUV
Chroma subsampling : 4:2:0
Bit depth : 8 bits
Scan type : Progressive
Bits/(Pixel*Frame) : 0.516
Stream size : 7.19 GiB (82%)
Title : The.Life.Aquatic.with.Steve.Zissou.2004.Criterion.720p-LolHD. rutracker
Writing library : x264 core 142 r2431kMod ac76440
Encoding settings : cabac=1 / ref=11 / deblock=1:-3:-3 / analyse=0x3:0x133 / me=umh / subme=11 / psy=1 / fade_compensate=0.00 / psy_rd=1.00:0.00 / mixed_ref=1 / me_range=32 / chroma_me=1 / trellis=2 / 8x8dct=1 / cqm=0 / deadzone=21,11 / fast_pskip=0 / chroma_qp_offset=-2 / threads=24 / lookahead_threads=4 / sliced_threads=0 / nr=0 / decimate=0 / interlaced=0 / bluray_compat=0 / constrained_intra=0 / fgo=0 / bframes=12 / b_pyramid=2 / b_adapt=2 / b_bias=0 / direct=3 / weightb=1 / open_gop=0 / weightp=2 / keyint=250 / keyint_min=23 / scenecut=40 / intra_refresh=0 / rc=crf / mbtree=0 / crf=15.2000 / qcomp=0.60 / qpmin=0 / qpmax=69 / qpstep=4 / ip_ratio=1.20 / pb_ratio=1.20 / aq=1:0.72
Language : English
Default : Yes
Forced : No
Audio #1
ID : 2
Format : AC-3
Format/Info : Audio Coding 3
Mode extension : CM (complete main)
Format settings, Endianness : Big
Codec ID : A_AC3
Duration : 1h 58mn
Bit rate mode : Constant
Bit rate : 448 Kbps
Channel(s) : 6 channels
Channel positions : Front: L C R, Side: L R, LFE
Sampling rate : 48.0 KHz
Bit depth : 16 bits
Compression mode : Lossy
Stream size : 381 MiB (4%)
Title : mvo
Language : Russian
Default : Yes
Forced : No
Audio #2
ID : 3
Format : AC-3
Format/Info : Audio Coding 3
Mode extension : CM (complete main)
Format settings, Endianness : Big
Codec ID : A_AC3
Duration : 1h 58mn
Bit rate mode : Constant
Bit rate : 384 Kbps
Channel(s) : 6 channels
Channel positions : Front: L C R, Side: L R, LFE
Sampling rate : 48.0 KHz
Bit depth : 16 bits
Compression mode : Lossy
Stream size : 326 MiB (4%)
Title : dvo
Language : Russian
Default : No
Forced : No
Audio #3
ID : 4
Format : AC-3
Format/Info : Audio Coding 3
Mode extension : CM (complete main)
Format settings, Endianness : Big
Codec ID : A_AC3
Duration : 1h 58mn
Bit rate mode : Constant
Bit rate : 640 Kbps
Channel(s) : 6 channels
Channel positions : Front: L C R, Side: L R, LFE
Sampling rate : 48.0 KHz
Bit depth : 16 bits
Compression mode : Lossy
Stream size : 544 MiB (6%)
Title : original
Language : English
Default : No
Forced : No
Audio #4
ID : 5
Format : AC-3
Format/Info : Audio Coding 3
Mode extension : CM (complete main)
Format settings, Endianness : Big
Codec ID : A_AC3
Duration : 1h 58mn
Bit rate mode : Constant
Bit rate : 192 Kbps
Channel(s) : 2 channels
Channel positions : Front: L R
Sampling rate : 48.0 KHz
Bit depth : 16 bits
Compression mode : Lossy
Stream size : 163 MiB (2%)
Title : commentary
Language : English
Default : No
Forced : No
Text #1
ID : 6
Format : UTF-8
Codec ID : S_TEXT/UTF8
Codec ID/Info : UTF-8 Plain Text
Language : Russian
Default : No
Forced : No
Text #2
ID : 7
Format : UTF-8
Codec ID : S_TEXT/UTF8
Codec ID/Info : UTF-8 Plain Text
Language : English
Default : No
Forced : No
Text #3
ID : 8
Format : UTF-8
Codec ID : S_TEXT/UTF8
Codec ID/Info : UTF-8 Plain Text
Title : SDH
Language : English
Default : No
Forced : No
Menu
00:00:00.000 : en:Adventure No. 12: "the Jaguar Shark" (Part 1)
00:05:03.428 : en:He's The Zissou
00:09:41.331 : en:"Life on Mars?"
00:13:24.012 : en:One Foot Off the Merry-Go-Round
00:14:59.398 : en:The Belafonte
00:16:39.207 : en:Explorers Club
00:19:27.083 : en:Zissou Compound
00:21:11.437 : en:Jane Winslett-Richardson
00:25:16.807 : en:Catch As Catch Can
00:27:25.352 : en:Fake, Phony, and a Bad Reporter
00:29:48.620 : en:Kingsley "Ned" Zissou
00:32:50.719 : en:Do the Interns Get Glocks?
00:34:31.236 : en:Oseary Drakoulias Productions
00:36:04.662 : en:"Gut Feeling"
00:38:10.663 : en:Season 3: Episode XIV "Trapped in the Ice!"
00:41:12.261 : en:Day 1: The Belafonte at Sea
00:45:20.092 : en:Dear Ned Plimpton ...
00:47:01.360 : en:Day 5: Operation Hennessey Underwater Sea-Laboratory
00:50:10.591 : en:Daydream Johnny
00:53:47.307 : en:6 AM: Investigating the Phantom Signal
00:56:58.957 : en:Day 9: In Unprotected Waters
01:06:37.410 : en:Day 14: Mutiny on the Belafonte
01:13:45.296 : en:Day 20: Towed Into Port-Au-Patois Harbor
01:21:37.184 : en:The Brains Behind Team Zissou
01:24:40.284 : en:Day 27: Rescuing the Bond Company Stooge
01:34:43.678 : en:Letter From Jane
01:40:04.540 : en:All Hands Bury the Dead
01:45:08.385 : en:I Wonder If He Remembers Me?
01:50:28.539 : en:This Is an Adventure
01:51:49.786 : en:"Queen Bitch"
Скриншоты
Скачать

Скачать торрент!

Как скачивать? · Что такое торрент? · Рейтинг и ограничения

Сайт не распространяет и не хранит электронные версии произведений, а лишь предоставляет доступ к создаваемому пользователями каталогу ссылок на торрент-файлы, которые содержат только списки хеш-сумм

[Профиль] [ЛС]
Показать сообщения:    
Ответить на тему

Текущее время: Сегодня 07:56

Часовой пояс: GMT + 4



Вы не можете начинать темы
Вы не можете отвечать на сообщения
Вы не можете редактировать свои сообщения
Вы не можете удалять свои сообщения
Вы не можете голосовать в опросах
Вы не можете прикреплять файлы к сообщениям
Вы не можете скачивать файлы