Плачущий убийца / Crying Freeman (Кристоф Ганс / Christophe Gans) [1995, США, Канада, Франция, Япония, Боевик, триллер, криминал, BDRip 1080p] MVO (Biz Video) + MVO (ТК Россия) + AVO (Гаврилов) + Sub (Rus, Eng) + Original Eng

Ответить на тему
 
Автор Сообщение

user ®

Стаж: 7 лет 7 месяцев

Сообщений: 20008

Пост Пост: #1 от 09-Июн-2014 02:25

[Цитировать]

Плачущий убийца / Crying Freeman- Страна: США , Канада , Франция , Япония
Студия: August Entertainment, Crying Freeman Productions, Davis-Films
Жанр: Боевик, триллер, криминал
Год выпуска: 1995
Продолжительность: 01:41:56
Перевод: Профессиональный (многоголосый закадровый) Biz Video
Перевод 2: Профессиональный (многоголосый закадровый) ТК Россия
Перевод 3: Авторский (одноголосый закадровый) Гаврилов
Cубтитры: русские, английские
Оригинальная аудиодорожка: английский
Режиссер: Кристоф Ганс / Christophe Gans
В ролях: Марк Дакаскос (Yo Hinomura / Freeman), Джули Кондра (Emu O'Hara), Джерри Вассерман (Chief Randall), Рэй Доун Чонг ( Detective Forge), Чеки Карио ( Detective Netah), Дэбби Подовски (Customs Agent), Мюррэй Лоури (Head Customs Agent), Байрон Мэнн (Koh), Микал Тэнг (Koh's Driver), Кеван Охтци (Takeshi Shimazaki), Мако (Shudo Shimazaki), Масая Като (Ryuji Hanada), Ёко Симада (Lady Hanada)
Описание: Молодого художника Йо Хиномура похищают и «перепрограммируют» в «Освободителя» — изощренного элитного убийцу, обладающего безграничными, почти фантастическими возможностями, способного ликвидировать даже главарей японской якудзы, главных противников его повелителей, Сынов Дракона.
Красавица Эму О'Хара оказывается случайной свидетельницей одного из убийств, совершенных Йо. Традиция «убийц — освободителей» требует, чтобы она погибла от его руки. Вместо этого, они влюбляются друг в друга и начинают одиссею страсти и насилия
Сэмпл: http://yadi.sk/d/tsznd337SX87N
Тип релиза: BDRip 1080p
Контейнер: MKV
Видео: MPEG-4 AVC, 12 Mбит/с, 1920x800, 23.976 кадр/с
Аудио: Русский (DTS, 6 ch, 1509 Кбит/с) / Профессиональный многоголосый (Biz Video)
Аудио 2: Русский (AC3, 2 ch, 192 Кбит/с) / Профессиональный многоголосый (ТК Россия)
Аудио 3: Русский (AC3, 2 ch, 192 Кбит/с) / Авторский одноголосый (Гаврилов)
Аудио 4: Украинский (AC3, 6 ch, 384 Кбит/с) / Профессиональный многоголосый ( ТК НТН)
Аудио 5: Английский (DTS, 6 ch, 1509 Кбит/с)
MediaInfo
Общее
Уникальный идентификатор : 185741329765071285718535113608763304641 (0x8BBC7A98911D93FC8336409D76686AC1)
Полное имя : D:Mои раздачиPlachushchyi.ubyica.1995.BDRip.1080p-MediaClub.mkv
Формат : Matroska
Версия формата : Version 4 / Version 2
Размер файла : 11,2 Гбайт
Продолжительность : 1 ч. 41 м.
Общий поток : 15,8 Мбит/сек
Название фильма : -=MediaClub-kaspr=-
Дата кодирования : UTC 2014-06-06 14:02:51
Программа кодирования : mkvmerge v6.9.1 ('Blue Panther') 64bit built on Apr 18 2014 18:23:38
Библиотека кодирования : libebml v1.3.0 + libmatroska v1.4.1
Видео
Идентификатор : 1
Формат : AVC
Формат/Информация : Advanced Video Codec
Профиль формата : High@L4.1
Параметр CABAC формата : Да
Параметр ReFrames формата : 5 кадров
Идентификатор кодека : V_MPEG4/ISO/AVC
Продолжительность : 1 ч. 41 м.
Битрейт : 12,0 Мбит/сек
Ширина : 1920 пикселей
Высота : 800 пикселей
Соотношение сторон : 2,40:1
Режим частоты кадров : Постоянный
Частота кадров : 23,976 кадра/сек
Цветовое пространство : YUV
Субдискретизация насыщенности : 4:2:0
Битовая глубина : 8 бит
Тип развёртки : Прогрессивная
Бит/(Пиксели*Кадры) : 0.326
Размер потока : 8,32 Гбайт (74%)
Заголовок : -=MediaClub-kaspr=-
Библиотека кодирования : x264 core 142 r2431+42 c69a006 tMod [8-bit@4:2:0 X86_64]
Настройки программы : cabac=1 / ref=5 / deblock=1:-3:-3 / analyse=0x3:0x113 / me=umh / subme=11 / psy=1 / fade_compensate=0.00 / psy_rd=1.00:0.20 / mixed_ref=1 / me_range=32 / chroma_me=1 / trellis=2 / 8x8dct=1 / cqm=0 / deadzone=21,11 / fast_pskip=0 / chroma_qp_offset=-3 / threads=12 / lookahead_threads=2 / sliced_threads=0 / nr=0 / decimate=0 / interlaced=0 / bluray_compat=0 / constrained_intra=0 / fgo=0 / bframes=8 / b_pyramid=2 / b_adapt=2 / b_bias=0 / direct=3 / weightb=1 / open_gop=0 / weightp=2 / keyint=240 / keyint_min=23 / scenecut=40 / intra_refresh=0 / rc=2pass / mbtree=0 / bitrate=12000 / ratetol=1.0 / qcomp=0.60 / qpmin=0:0:0 / qpmax=69:69:69 / qpstep=4 / cplxblur=20.0 / qblur=0.5 / ip_ratio=1.40 / pb_ratio=1.30 / aq=4:0.80 / aq-sensitivity=10.00 / aq-factor=1.00:1.00:1.00 / aq2=0 / aq3=0
Default : Да
Forced : Да
Аудио #1
Идентификатор : 2
Формат : DTS
Формат/Информация : Digital Theater Systems
Режим : 16
Параметр Endianness формата : Big
Идентификатор кодека : A_DTS
Продолжительность : 1 ч. 41 м.
Вид битрейта : Постоянный
Битрейт : 1509 Кбит/сек
Каналы : 6 каналов
Расположение каналов : Front: L C R, Side: L R, LFE
Частота : 48,0 КГц
Битовая глубина : 16 бит
Метод сжатия : С потерями
Размер потока : 1,07 Гбайт (10%)
Заголовок : MVO (R5)
Язык : Russian
Default : Да
Forced : Да
Аудио #2
Идентификатор : 3
Формат : AC-3
Формат/Информация : Audio Coding 3
Профиль формата : Dolby Digital
Расширение режима : CM (complete main)
Параметр Endianness формата : Big
Идентификатор кодека : A_AC3
Продолжительность : 1 ч. 41 м.
Вид битрейта : Постоянный
Битрейт : 192 Кбит/сек
Каналы : 2 канала
Расположение каналов : Front: L R
Частота : 48,0 КГц
Битовая глубина : 16 бит
Метод сжатия : С потерями
Размер потока : 140 Мбайт (1%)
Заголовок : MVO (ТК Россия)
Язык : Russian
Default : Нет
Forced : Нет
Аудио #3
Идентификатор : 4
Формат : AC-3
Формат/Информация : Audio Coding 3
Профиль формата : Dolby Digital
Расширение режима : CM (complete main)
Параметр Endianness формата : Big
Идентификатор кодека : A_AC3
Продолжительность : 1 ч. 41 м.
Вид битрейта : Постоянный
Битрейт : 192 Кбит/сек
Каналы : 2 канала
Расположение каналов : Front: L R
Частота : 48,0 КГц
Битовая глубина : 16 бит
Метод сжатия : С потерями
Размер потока : 140 Мбайт (1%)
Заголовок : AVO (Гаврилов)
Язык : Russian
Default : Нет
Forced : Нет
Аудио #4
Идентификатор : 5
Формат : AC-3
Формат/Информация : Audio Coding 3
Расширение режима : CM (complete main)
Параметр Endianness формата : Big
Идентификатор кодека : A_AC3
Продолжительность : 1 ч. 41 м.
Вид битрейта : Постоянный
Битрейт : 384 Кбит/сек
Каналы : 6 каналов
Расположение каналов : Front: L C R, Side: L R, LFE
Частота : 48,0 КГц
Битовая глубина : 16 бит
Метод сжатия : С потерями
Размер потока : 280 Мбайт (2%)
Заголовок : MVO (HTH)
Язык : Ukrainian
Default : Нет
Forced : Нет
Аудио #5
Идентификатор : 6
Формат : DTS
Формат/Информация : Digital Theater Systems
Режим : 16
Параметр Endianness формата : Big
Идентификатор кодека : A_DTS
Продолжительность : 1 ч. 41 м.
Вид битрейта : Постоянный
Битрейт : 1509 Кбит/сек
Каналы : 6 каналов
Расположение каналов : Front: L C R, Side: L R, LFE
Частота : 48,0 КГц
Битовая глубина : 16 бит
Метод сжатия : С потерями
Размер потока : 1,07 Гбайт (10%)
Язык : English
Default : Нет
Forced : Нет
Текст #1
Идентификатор : 7
Формат : UTF-8
Идентификатор кодека : S_TEXT/UTF8
Идентификатор кодека/Информация : UTF-8 Plain Text
Язык : Russian
Default : Нет
Forced : Нет
Текст #2
Идентификатор : 8
Формат : UTF-8
Идентификатор кодека : S_TEXT/UTF8
Идентификатор кодека/Информация : UTF-8 Plain Text
Язык : English
Default : Нет
Forced : Нет
Меню
00:00:00.000 : en:Chapter 01
00:03:34.964 : en:Chapter 02
00:10:11.235 : en:Chapter 03
00:11:53.087 : en:Chapter 04
00:15:56.413 : en:Chapter 05
00:20:16.089 : en:Chapter 06
00:22:51.244 : en:Chapter 07
00:26:30.714 : en:Chapter 08
00:30:58.022 : en:Chapter 09
00:33:44.397 : en:Chapter 10
00:40:29.593 : en:Chapter 11
00:45:50.581 : en:Chapter 12
00:48:46.965 : en:Chapter 13
00:50:47.294 : en:Chapter 14
00:53:30.290 : en:Chapter 15
00:59:04.415 : en:Chapter 16
01:01:08.373 : en:Chapter 17
01:06:21.143 : en:Chapter 18
01:07:48.064 : en:Chapter 19
01:11:23.153 : en:Chapter 20
01:14:47.649 : en:Chapter 21
01:20:24.945 : en:Chapter 22
01:25:44.597 : en:Chapter 23
01:35:17.002 : en:Chapter 24
Скриншоты
Скачать

Скачать торрент!

Как скачивать? · Что такое торрент? · Рейтинг и ограничения

Сайт не распространяет и не хранит электронные версии произведений, а лишь предоставляет доступ к создаваемому пользователями каталогу ссылок на торрент-файлы, которые содержат только списки хеш-сумм

[Профиль] [ЛС]
Показать сообщения:    
Ответить на тему

Текущее время: Сегодня 16:29

Часовой пояс: GMT + 4



Вы не можете начинать темы
Вы не можете отвечать на сообщения
Вы не можете редактировать свои сообщения
Вы не можете удалять свои сообщения
Вы не можете голосовать в опросах
Вы не можете прикреплять файлы к сообщениям
Вы не можете скачивать файлы