Пивной фестиваль / Пивной бум / Beerfest (Джей Чандрашекхар / Jay Chandrasekhar) [2006, США, Австралия, комедия, BDRemux 1080p] [Unrated] 2х DVO + VO (Котов) + Sub Eng + Original Eng

Ответить на тему
 
Автор Сообщение

user ®

Стаж: 7 лет 7 месяцев

Сообщений: 20008

Пост Пост: #1 от 09-Июн-2014 02:25

[Цитировать]

Пивной фестиваль / Пивной бум / Beerfest (Unrated)
Страна: США, Австралия
Студия: Warner Bros. Pictures и др.
Жанр: комедия
Год выпуска: 2006
Продолжительность: 01:56:27
Перевод: Профессиональный (двухголосый закадровый)
Перевод 2: Профессиональный (двухголосый закадровый) ТВ-3
Перевод 3: Одноголосый закадровый В. Котов
Cубтитры: английские
Оригинальная аудиодорожка: английский
Режиссер: Джей Чандрашекхар / Jay Chandrasekhar
В ролях: М.С. Гейни, Пол Сотер, Эрик Столханске, Клорис Личмен, Юрген Прохнов, Овайн Йомэн, Том Тейт, Аллан Граф, Кристофер Мосс
Описание: Американцы Тодд и Ян Вулфхаус приезжают в Германию на ежегодный фестиваль пива «Октоберфест» чтобы развеять здесь прах своего дедушки. Здесь они случайно попадают на супер-секретные пивные игры, этакие олимпийские игры по распитию пенного напитка. Братьев подчистую обыгрывают, напоив их до бессознательного состояния. Но ребята обещают вернуться через год, чтобы взять реванш. У себя на родине они собирают команду любителей пива, состоящую из заядлых выпивох. Сильная печень и воля к победе — это все что надо, чтобы выиграть пивные игры…
Доп. информация: За ремукс спасибо kaspr. В обоих двухголосых переводах сделаны вставки с озвучкой Вячеслава Котова на отсутствующие в театральной версии места.

Sample
Тип релиза: BDRemux 1080p
Контейнер: MKV
Видео: VC-1 Video, H264, 16:9, 1920x1080, 23,976 fps, 16805 kbps
Аудио: Russian (AC3, 6 ch, 448 kbps, 16 bits, 48.0 KHz) - DVO
Аудио 2: Russian (AC3, 2 ch, 192 kbps, 16 bits, 48.0 KHz) - ТВ-3
Аудио 3: Russian (AC3, 6 ch, 384 kbps, 16 bits, 48.0 KHz) - В. Котов
Аудио 4: English (AC3, 6 ch, 640 kbps, 16 bits, 48.0 KHz) - оригинал
Формат субтитров: softsub (SRT)
MediaInfo
General
Unique ID : 237535325381702362855958089921519438737 (0xB2B3A3BCD75B4D849BEC19E3FE484B91)
Complete name : E:\1\Beerfest.2006.BDRemux.mkv
Format : Matroska
Format version : Version 4 / Version 2
File size : 15.0 GiB
Duration : 1h 56mn
Overall bit rate : 18.5 Mbps
Encoded date : UTC 2014-06-04 06:28:57
Writing application : mkvmerge v6.1.0 ('Old Devil') built on Mar 2 2013 14:32:37
Writing library : libebml v1.3.0 + libmatroska v1.4.0
Video
ID : 1
Format : VC-1
Format profile : Advanced@L3
Codec ID : V_MS/VFW/FOURCC / WVC1
Codec ID/Hint : Microsoft
Duration : 1h 56mn
Bit rate : 16.4 Mbps
Width : 1 920 pixels
Height : 1 080 pixels
Display aspect ratio : 16:9
Frame rate mode : Constant
Frame rate : 23.976 fps
Color space : YUV
Chroma subsampling : 4:2:0
Bit depth : 8 bits
Scan type : Progressive
Compression mode : Lossy
Bits/(Pixel*Frame) : 0.331
Stream size : 13.4 GiB (89%)
Language : English
Default : Yes
Forced : No
Audio #1
ID : 2
Format : AC-3
Format/Info : Audio Coding 3
Mode extension : CM (complete main)
Format settings, Endianness : Big
Codec ID : A_AC3
Duration : 1h 56mn
Bit rate mode : Constant
Bit rate : 448 Kbps
Channel count : 6 channels
Channel positions : Front: L C R, Side: L R, LFE
Sampling rate : 48.0 KHz
Bit depth : 16 bits
Compression mode : Lossy
Stream size : 373 MiB (2%)
Language : Russian
Default : Yes
Forced : No
Audio #2
ID : 3
Format : AC-3
Format/Info : Audio Coding 3
Mode extension : CM (complete main)
Format settings, Endianness : Big
Codec ID : A_AC3
Duration : 1h 56mn
Bit rate mode : Constant
Bit rate : 192 Kbps
Channel count : 2 channels
Channel positions : Front: L R
Sampling rate : 48.0 KHz
Bit depth : 16 bits
Compression mode : Lossy
Stream size : 160 MiB (1%)
Title : ТВ-3
Language : Russian
Default : No
Forced : No
Audio #3
ID : 4
Format : AC-3
Format/Info : Audio Coding 3
Mode extension : CM (complete main)
Format settings, Endianness : Big
Codec ID : A_AC3
Duration : 1h 56mn
Bit rate mode : Constant
Bit rate : 384 Kbps
Channel count : 6 channels
Channel positions : Front: L C R, Side: L R, LFE
Sampling rate : 48.0 KHz
Bit depth : 16 bits
Compression mode : Lossy
Stream size : 320 MiB (2%)
Title : В.Котов
Language : Russian
Default : No
Forced : No
Audio #4
ID : 5
Format : AC-3
Format/Info : Audio Coding 3
Mode extension : CM (complete main)
Format settings, Endianness : Big
Codec ID : A_AC3
Duration : 1h 56mn
Bit rate mode : Constant
Bit rate : 640 Kbps
Channel count : 6 channels
Channel positions : Front: L C R, Side: L R, LFE
Sampling rate : 48.0 KHz
Bit depth : 16 bits
Compression mode : Lossy
Stream size : 533 MiB (3%)
Language : English
Default : No
Forced : No
Text
ID : 6
Format : UTF-8
Codec ID : S_TEXT/UTF8
Codec ID/Info : UTF-8 Plain Text
Language : English
Default : No
Forced : No
Menu
00:00:00.000 : en:Chapter 01
00:02:58.344 : en:Chapter 02
00:06:13.373 : en:Chapter 03
00:07:54.974 : en:Chapter 04
00:12:29.915 : en:Chapter 05
00:15:50.449 : en:Chapter 06
00:19:22.161 : en:Chapter 07
00:24:23.795 : en:Chapter 08
00:33:48.026 : en:Chapter 09
00:39:00.504 : en:Chapter 10
00:40:36.434 : en:Chapter 11
00:43:05.082 : en:Chapter 12
00:44:33.671 : en:Chapter 13
00:48:25.736 : en:Chapter 14
00:51:59.449 : en:Chapter 15
00:54:22.092 : en:Chapter 16
00:59:12.382 : en:Chapter 17
01:04:35.204 : en:Chapter 18
01:06:49.005 : en:Chapter 19
01:12:45.861 : en:Chapter 20
01:15:51.046 : en:Chapter 21
01:20:20.982 : en:Chapter 22
01:23:35.677 : en:Chapter 23
01:28:33.474 : en:Chapter 24
01:34:17.652 : en:Chapter 25
01:36:07.428 : en:Chapter 26
01:39:08.776 : en:Chapter 27
01:39:40.641 : en:Chapter 28
01:40:43.704 : en:Chapter 29
01:45:37.831 : en:Chapter 30
01:50:04.598 : en:Chapter 31
Скриншоты
Скачать

Скачать торрент!

Как скачивать? · Что такое торрент? · Рейтинг и ограничения

Сайт не распространяет и не хранит электронные версии произведений, а лишь предоставляет доступ к создаваемому пользователями каталогу ссылок на торрент-файлы, которые содержат только списки хеш-сумм

[Профиль] [ЛС]
Показать сообщения:    
Ответить на тему

Текущее время: Сегодня 08:11

Часовой пояс: GMT + 4



Вы не можете начинать темы
Вы не можете отвечать на сообщения
Вы не можете редактировать свои сообщения
Вы не можете удалять свои сообщения
Вы не можете голосовать в опросах
Вы не можете прикреплять файлы к сообщениям
Вы не можете скачивать файлы