Одним меньше / Dead Man Down (Нильс Арден Оплев / Niels Arden Oplev) [2013, США, боевик, триллер, драма, криминал, BDRip 720p] AVO Гаврилов + Original Eng + Sub Rus, Eng

Ответить на тему
 
Автор Сообщение

user ®

Стаж: 7 лет 7 месяцев

Сообщений: 20008

Пост Пост: #1 от 09-Июн-2014 02:25

[Цитировать]

Одним меньше / Dead Man Down- Страна: США
Жанр: боевик, триллер, драма, криминал
Год выпуска: 2013
Продолжительность: 01:57:47
Перевод:

  • Авторский (одноголосый закадровый)
    Cубтитры: русские, английские
    Оригинальная аудиодорожка: английский-Режиссер: Нильс Арден Оплев / Niels Arden Oplev
    В ролях: Колин Фаррелл, Нуми Рапас, Терренс Ховард, Доминик Купер, Изабель Юппер, Луис Да Силва мл., Стью Беннетт, Фрэнки Джи, Деклан Мулвей, Джон Ченатьемпо.
    Описание: Виктор живет в криминальном мире, работая на самого влиятельного гангстера Нью-Йорка — Альфонсо Хойта. Он является правой рукой своего босса и выполняет самые ответственные задания, включая убийства людей, становящихся на пути мафии. В этом преступном мире парень оказался не случайно — когда-то Альфонсо хладнокровно убил жену и ребенка Виктора и теперь молодой человек хочет отомстить. Он разработал отличный план и приступил к его осуществлению. Однако, через некоторое время, в его жизни появляется довольно странная девушка Беатрис, у которой есть видеозапись преступления, совершенного Виктором. Она начинает шантажировать его и вынуждает совершить для нее убийство одного человека, который был виновен в автокатастрофе, после которой Беатрис осталась изуродованной на всю жизнь. Острое желание мести объединяет двух молодых людей, вот только удастся ли им осуществить задуманное?-Тип релиза: BDRip 720p
    Контейнер: MKV | Sample
    Видео: 1280x534 (2.40:1), 23.976 fps, x264@L4.1 ~6666 kbps avg
    Аудио 1: Russian 48 kHz, DTS, 3/2 (L,C,R,l,r) + LFE ch, 1509.00 kbps avg | Гаврилов
    Аудио 2: English 48 kHz, DTS, 3/2 (L,C,R,l,r) + LFE ch, 1509.00 kbps avg | Original

    Скриншоты
Медиаинфо
Общее
Формат : Matroska
Версия формата : Version 4 / Version 2
Размер файла : 7,97 Гбайт
Продолжительность : 1 ч. 57 м.
Общий поток : 9687 Кбит/сек
Название фильма : Dead Man Down 2013
Дата кодирования : UTC 2014-06-07 16:58:03
Программа кодирования : mkvmerge v6.1.0 ('Old Devil') built on Mar 4 2013 09:10:42
Библиотека кодирования : libebml v1.3.0 + libmatroska v1.4.0
Видео
Идентификатор : 1
Формат : AVC
Формат/Информация : Advanced Video Codec
Профиль формата : High@L4.1
Параметр CABAC формата : Да
Параметр ReFrames формата : 12 кадров
Идентификатор кодека : V_MPEG4/ISO/AVC
Продолжительность : 1 ч. 57 м.
Битрейт : 6666 Кбит/сек
Ширина : 1280 пикселей
Высота : 534 пикселя
Соотношение сторон : 2,40:1
Режим частоты кадров : Постоянный
Частота кадров : 23,976 кадра/сек
Цветовое пространство : YUV
Субдискретизация насыщенности : 4:2:0
Битовая глубина : 8 бит
Тип развёртки : Прогрессивная
Бит/(Пиксели*Кадры) : 0.407
Размер потока : 5,33 Гбайт (67%)
Заголовок : BDRip 720p
Библиотека кодирования : x264 core 133 r2334 a3ac64b
Настройки программы : cabac=1 / ref=12 / deblock=1:-3:-3 / analyse=0x3:0x133 / me=umh / subme=11 / psy=1 / psy_rd=1.00:0.50 / mixed_ref=1 / me_range=48 / chroma_me=1 / trellis=2 / 8x8dct=1 / cqm=0 / deadzone=21,11 / fast_pskip=1 / chroma_qp_offset=-4 / threads=12 / lookahead_threads=2 / sliced_threads=0 / nr=0 / decimate=1 / interlaced=0 / bluray_compat=0 / constrained_intra=0 / bframes=8 / b_pyramid=2 / b_adapt=2 / b_bias=0 / direct=3 / weightb=1 / open_gop=0 / weightp=2 / keyint=240 / keyint_min=23 / scenecut=40 / intra_refresh=0 / rc_lookahead=40 / rc=2pass / mbtree=1 / bitrate=6666 / ratetol=1.0 / qcomp=0.80 / qpmin=5 / qpmax=51 / qpstep=4 / cplxblur=20.0 / qblur=0.5 / ip_ratio=1.40 / aq=1:1.00
Язык : English
Default : Да
Forced : Нет
Аудио #1
Идентификатор : 2
Формат : DTS
Формат/Информация : Digital Theater Systems
Режим : 16
Параметр Endianness формата : Big
Идентификатор кодека : A_DTS
Продолжительность : 1 ч. 57 м.
Вид битрейта : Постоянный
Битрейт : 1509 Кбит/сек
Каналы : 6 каналов
Расположение каналов : Front: L C R, Side: L R, LFE
Частота : 48,0 КГц
Битовая глубина : 24 бит
Метод сжатия : С потерями
Размер потока : 1,24 Гбайт (16%)
Заголовок : AVO Гаврилов
Язык : Russian
Default : Да
Forced : Нет
Аудио #2
Идентификатор : 3
Формат : DTS
Формат/Информация : Digital Theater Systems
Режим : 16
Параметр Endianness формата : Big
Идентификатор кодека : A_DTS
Продолжительность : 1 ч. 57 м.
Вид битрейта : Постоянный
Битрейт : 1509 Кбит/сек
Каналы : 6 каналов
Расположение каналов : Front: L C R, Side: L R, LFE
Частота : 48,0 КГц
Битовая глубина : 24 бит
Метод сжатия : С потерями
Размер потока : 1,24 Гбайт (16%)
Заголовок : Original
Язык : English
Default : Нет
Forced : Нет
Текст #1
Идентификатор : 4
Формат : UTF-8
Идентификатор кодека : S_TEXT/UTF8
Идентификатор кодека/Информация : UTF-8 Plain Text
Заголовок : Full
Язык : Russian
Default : Нет
Forced : Нет
Текст #2
Идентификатор : 5
Формат : UTF-8
Идентификатор кодека : S_TEXT/UTF8
Идентификатор кодека/Информация : UTF-8 Plain Text
Заголовок : Full
Язык : English
Default : Нет
Forced : Нет
Меню
00:00:00.000 : en:00:00:00.000
00:11:40.950 : en:00:11:40.950
00:16:48.591 : en:00:16:48.591
00:25:18.642 : en:00:25:18.642
00:30:38.628 : en:00:30:38.628
00:36:37.779 : en:00:36:37.779
00:41:19.811 : en:00:41:19.811
00:46:36.669 : en:00:46:36.669
00:55:52.516 : en:00:55:52.516
01:03:13.206 : en:01:03:13.206
01:12:09.033 : en:01:12:09.033
01:18:25.034 : en:01:18:25.034
01:24:07.042 : en:01:24:07.042
01:31:35.865 : en:01:31:35.865
01:36:36.165 : en:01:36:36.165
01:42:52.416 : en:01:42:52.416
Дополнительно
За перевод Гаврилова большое спасибо пользователям
eyrobot, KpucTo161, Pain_70, kinobbk, karantin66, SavineX, Schmulke, nimph, Xerman13, rydanes, Brown15, feldeger, dunhill200, lexal, Chistobaev, foxlight, olegsoleg, Hattori Hanzo, Loki, milocerd0v, mamachucha66, Role, Vimann, zork, Letyoha3, ZeRoNe, timur, shtift, sawyer4, Guyver, fly32, -Джосс-, chef&chef, pupok-, LAVR, Диммон, therox, vadamk, John Ryder, maximus1099, _MyxAmoP_, Rolly Tyler, GaryH, ultrajeka, denis_mgn_1987, BIMMER
Скачать

Скачать торрент!

Как скачивать? · Что такое торрент? · Рейтинг и ограничения

Сайт не распространяет и не хранит электронные версии произведений, а лишь предоставляет доступ к создаваемому пользователями каталогу ссылок на торрент-файлы, которые содержат только списки хеш-сумм

[Профиль] [ЛС]
Показать сообщения:    
Ответить на тему

Текущее время: Сегодня 19:26

Часовой пояс: GMT + 4



Вы не можете начинать темы
Вы не можете отвечать на сообщения
Вы не можете редактировать свои сообщения
Вы не можете удалять свои сообщения
Вы не можете голосовать в опросах
Вы не можете прикреплять файлы к сообщениям
Вы не можете скачивать файлы