3 дня на убийство / 3 Days to Kill (МакДжи / McG) [2014, США, Франция, Греция, Россия, боевик, триллер, драма, BDRip 1080p] [Theatrical Cut] [US] Dub + Original (Eng) + Sub (Rus, Eng)

Ответить на тему
 
Автор Сообщение

user ®

Стаж: 7 лет 7 месяцев

Сообщений: 20008

Пост Пост: #1 от 09-Июн-2014 02:25

[Цитировать]

3 дня на убийство / 3 Days to Kill
Страна: США, Франция, Греция, Россия
Производство: 3DTK, EuropaCorp, Feelgood Entertainment, Paradise/MGN, Relativity Media, Wonderland Sound and Vision
Жанр: боевик, триллер, драма
Год выпуска: 2014
Продолжительность: 01:57:02
Перевод: Профессиональный (дублированный) BD RUS
Оригинальная аудиодорожка: английская
Cубтитры: русские, английские
Режиссер: МакДжи / McG
В ролях: Кевин Костнер, Эмбер Херд, Хейли Стейнфилд, Конни Нилсен, Рихард Заммель, Марк Андреони, Бруно Риччи, Эрик Эбуани, Микаэль Вандер-Мейрен
Описание: Умирающему агенту ЦРУ предлагают экспериментальное лекарство, которое может спасти его жизнь, в обмен на одно последнее задание…

Релиз: fanatus
Качество видео: BDRip 1080p
Исходник: 3DAYS_TO_KILLBD_USA_BLUEBIRD
Контейнер: MKV
Видео: MPEG-4 AVC, 13.2 Mbps , 1920x810 (2.40:1), 23.976 fps, 0.354 bit/pixel
Аудио 1: русский (DTS, 6 ch, 48 kHz, 1510 kbps)
Аудио 2: английский (DTS, 6 ch, 48 kHz, 1510 kbps)
Формат субтитров: softsub (SRT)
Главы: есть
MediaInfo
General
Unique ID : 240357582924885240478024546540962469298 (0xB4D32FC715F3B7EDB7D685B8A64055B2)
Complete name : E:\3_dnja_na_ubijstvo.2014.x264.BDRip.1080p.fanatus.mkv
Format : Matroska
Format version : Version 2
File size : 13.3 GiB
Duration : 1h 57mn
Overall bit rate : 16.2 Mbps
Movie name : 3 Days to Kill (2014) - fanatus
Encoded date : UTC 2014-06-08 06:56:33
Writing application : mkvmerge v3.4.0 ('Rapunzel') сборка от May 15 2010 09:38:20
Writing library : libebml v0.8.0 + libmatroska v0.9.0
Attachment : Yes
Video
ID : 1
Format : AVC
Format/Info : Advanced Video Codec
Format profile : High@L4.1
Format settings, CABAC : Yes
Format settings, ReFrames : 5 frames
Codec ID : V_MPEG4/ISO/AVC
Duration : 1h 57mn
Bit rate : 13.2 Mbps
Width : 1 920 pixels
Height : 810 pixels
Display aspect ratio : 2.40:1
Frame rate : 23.976 fps
Color space : YUV
Chroma subsampling : 4:2:0
Bit depth : 8 bits
Scan type : Progressive
Bits/(Pixel*Frame) : 0.354
Stream size : 10.5 GiB (79%)
Title : 3 Days to Kill (2014) BDRip(1080p)
Writing library : x264 core 142 r2431+42 c69a006 tMod [8-bit@all X86]
Encoding settings : cabac=1 / ref=5 / deblock=1:-3:-3 / analyse=0x3:0x113 / me=tesa / subme=11 / psy=1 / fade_compensate=0.00 / psy_rd=1.04:0.02 / mixed_ref=1 / me_range=48 / chroma_me=1 / trellis=2 / 8x8dct=1 / cqm=0 / deadzone=21,11 / fast_pskip=0 / chroma_qp_offset=-3 / threads=16 / lookahead_threads=4 / sliced_threads=0 / nr=0 / decimate=0 / interlaced=0 / bluray_compat=0 / constrained_intra=0 / fgo=0 / bframes=10 / b_pyramid=2 / b_adapt=2 / b_bias=0 / direct=3 / weightb=1 / open_gop=0 / weightp=2 / keyint=240 / keyint_min=23 / scenecut=40 / intra_refresh=0 / rc_lookahead=240 / rc=2pass / mbtree=0 / bitrate=13200 / ratetol=1.0 / qcomp=0.70 / qpmin=0:0:0 / qpmax=69:69:69 / qpstep=4 / cplxblur=20.0 / qblur=0.5 / vbv_maxrate=50000 / vbv_bufsize=62500 / nal_hrd=none / filler=0 / ip_ratio=1.40 / pb_ratio=1.30 / aq=4:0.80 / aq-sensitivity=10.00 / aq-factor=1.00:1.00:1.00 / aq2=0 / aq3=0
Language : English
Default : Yes
Forced : No
Audio #1
ID : 2
Format : DTS
Format/Info : Digital Theater Systems
Codec ID : A_DTS
Duration : 1h 57mn
Bit rate mode : Constant
Bit rate : 1 510 Kbps
Channel(s) : 6 channels
Channel positions : Front: L C R, Side: L R, LFE
Sampling rate : 48.0 KHz
Bit depth : 24 bits
Compression mode : Lossy
Stream size : 1.23 GiB (9%)
Title : Dub (BD RUS)
Language : Russian
Default : Yes
Forced : No
Audio #2
ID : 3
Format : DTS
Format/Info : Digital Theater Systems
Codec ID : A_DTS
Duration : 1h 57mn
Bit rate mode : Constant
Bit rate : 1 510 Kbps
Channel(s) : 6 channels
Channel positions : Front: L C R, Side: L R, LFE
Sampling rate : 48.0 KHz
Bit depth : 24 bits
Compression mode : Lossy
Stream size : 1.23 GiB (9%)
Title : Original
Language : English
Default : No
Forced : No
Text #1
ID : 4
Format : UTF-8
Codec ID : S_TEXT/UTF8
Codec ID/Info : UTF-8 Plain Text
Title : Full
Language : Russian
Default : No
Forced : No
Text #2
ID : 5
Format : UTF-8
Codec ID : S_TEXT/UTF8
Codec ID/Info : UTF-8 Plain Text
Title : SDH
Language : English
Default : No
Forced : No
Menu
00:00:00.000 : en:Chapter 01
00:10:52.234 : en:Chapter 02
00:19:13.235 : en:Chapter 03
00:28:51.396 : en:Chapter 04
00:39:16.645 : en:Chapter 05
00:49:16.828 : en:Chapter 06
00:59:08.044 : en:Chapter 07
01:10:12.333 : en:Chapter 08
01:20:02.547 : en:Chapter 09
01:30:04.732 : en:Chapter 10
01:39:39.890 : en:Chapter 11
01:49:45.704 : en:Chapter 12
01:57:01.973 : en:Chapter 13
x264 [info]
x264 [info]: 1920x810p 1:1 @ 24000/1001 fps (cfr)
x264 [info]: color matrix: undef
x264 [info]: using SAR=1/1
x264 [info]: using cpu capabilities: MMX2 SSE2Fast SSSE3 SSE4.2 AVX
x264 [info]: profile High, level 4.1
x264 [info]: started at Fri Jun 06 01:44:05 2014
x264 [info]: frame I:1831 Avg QP:12.57 size:263628
x264 [info]: frame P:46315 Avg QP:15.07 size:115606
x264 [info]: frame B:120214 Avg QP:17.10 size: 47758
x264 [info]: consecutive B-frames: 5.7% 8.2% 8.9% 35.5% 12.0% 18.2% 5.2% 4.9% 0.6% 0.1% 0.5%
x264 [info]: mb I I16..4: 6.9% 78.3% 14.8%
x264 [info]: mb P I16..4: 1.4% 28.0% 1.5% P16..4: 19.6% 26.1% 12.7% 0.0% 0.0% skip:10.8%
x264 [info]: mb B I16..4: 0.1% 2.6% 0.1% B16..8: 29.1% 27.9% 8.1% direct: 8.1% skip:24.0% L0:43.1% L1:41.5% BI:15.5%
x264 [info]: 8x8 transform intra:89.5% inter:56.4%
x264 [info]: direct mvs spatial:99.1% temporal:0.9%
x264 [info]: coded y,uvDC,uvAC intra: 91.8% 93.2% 84.4% inter: 40.2% 39.5% 16.8%
x264 [info]: i16 v,h,dc,p: 53% 10% 4% 32%
x264 [info]: i8 v,h,dc,ddl,ddr,vr,hd,vl,hu: 10% 9% 15% 9% 11% 11% 11% 11% 13%
x264 [info]: i4 v,h,dc,ddl,ddr,vr,hd,vl,hu: 14% 11% 8% 8% 13% 12% 12% 10% 11%
x264 [info]: i8c dc,h,v,p: 50% 20% 17% 13%
x264 [info]: Weighted P-Frames: Y:2.7% UV:1.9%
x264 [info]: ref P L0: 55.5% 10.9% 19.7% 6.7% 6.4% 0.8% 0.0%
x264 [info]: ref B L0: 85.1% 10.9% 3.0% 1.0%
x264 [info]: ref B L1: 95.3% 4.7%
x264 [info]: kb/s:13190.63
x264 [info]: encoded 168360 frames, 1.166 fps, 13190.63 kb/s, 11042 MB
x264 [info]: ended at Sat Jun 07 17:49:36 2014
x264 [info]: encoding duration 40:05:31
Скриншот c названием фильма Скриншоты Source vs Rip
Скачать

Скачать торрент!

Как скачивать? · Что такое торрент? · Рейтинг и ограничения

Сайт не распространяет и не хранит электронные версии произведений, а лишь предоставляет доступ к создаваемому пользователями каталогу ссылок на торрент-файлы, которые содержат только списки хеш-сумм

[Профиль] [ЛС]
Показать сообщения:    
Ответить на тему

Текущее время: Сегодня 01:14

Часовой пояс: GMT + 4



Вы не можете начинать темы
Вы не можете отвечать на сообщения
Вы не можете редактировать свои сообщения
Вы не можете удалять свои сообщения
Вы не можете голосовать в опросах
Вы не можете прикреплять файлы к сообщениям
Вы не можете скачивать файлы