3 дня на убийство / 3 Days to Kill (МакДжи / McG) [2014 г., США, Франция, Греция, Россия, боевик, криминал, триллер, драма, комедия, HDRip] [Театральная версия / Theatrical Cut] Dub

Ответить на тему
 
Автор Сообщение

user ®

Стаж: 7 лет 7 месяцев

Сообщений: 20008

Пост Пост: #1 от 09-Июн-2014 02:25

[Цитировать]

-3 дня на убийство / 3 Days to Kill[Театральная версия / Theatrical Cut]--Год выпуска: 2014Страна: США, Франция, Греция, РоссияЖанр: боевик, криминал, триллер, драма, комедия-Продолжительность: 01:57:01Перевод: Профессиональный (дублированный) [лицензия BD RUS]Субтитры: нет--Режиссер:МакДжи / McG-В ролях:Кевин Костнер, Эмбер Хёрд, Хейли Стайнфелд, Конни Нильсен, Томас Лемаркус, Рихард Заммель, Марк Андреони, Бруно Риччи, Йонас Блоке, Эрик Эбони-Описание:
В секретной лаборатории ученые разработали препарат, который позволяет человеку справиться с любой неизлечимой болезнью. Руководство спецслужб предлагает принять это лекарство экс-агенту спецслужб Итану Раннеру, которому врачи объявили смертельный диагноз. Но он должен выполнить еще одно задание, которое, впрочем, может стоить ему жизни. Теперь вокруг Раннера начинают происходить странные вещи. Что это - галлюцинации, побочный эффект от таблеток или мир действительно полон ужаса и кошмара?
--Дополнительная информация:- -Сэмпл №1 Сэмпл №2 Рип совместим с бытовыми DVD-проигрывателями.--Качество видео: HDRip (Исходник: BDRip 720p от HELLYWOOD )
Формат видео: AVI
Видео: XviD build 73, 640x272 (2.35:1), 23.976 fps, ~759kbps, 0.182 bit/pixel
Аудио №1: MPEG Layer 3, 2 ch, 48 kHz, 128.00 kbps avg (Dub)-Скриншоты
Скриншот с названием

MediaInfo
General
Complete name : \3_Days_to_Kill_(2014).HDRip.Dub_[All.Films][RG].avi
Format : AVI
Format/Info : Audio Video Interleave
File size : 750 MiB
Duration : 1h 57mn
Overall bit rate : 896 Kbps
Movie name : 3 дня на убийство / 3 Days to Kill (2014) HDRip [Театральная версия / Theatrical Cut] [All.Films][RG]
Director :
Writing application : VirtualDubMod 1.5.10.3 | www.virtualdub-fr.org || (build 2550/release)
Video
ID : 0
Format : MPEG-4 Visual
Format profile : Advanced Simple@L5
Format settings, BVOP : 2
Format settings, QPel : No
Format settings, GMC : No warppoints
Format settings, Matrix : Custom
Codec ID : XVID
Codec ID/Hint : XviD
Duration : 1h 57mn
Bit rate : 759 Kbps
Width : 640 pixels
Height : 272 pixels
Display aspect ratio : 2.35:1
Frame rate : 23.976 fps
Color space : YUV
Chroma subsampling : 4:2:0
Bit depth : 8 bits
Scan type : Progressive
Compression mode : Lossy
Bits/(Pixel*Frame) : 0.182
Stream size : 635 MiB (85%)
Writing library : XviD 73
Audio
ID : 1
Format : MPEG Audio
Format version : Version 1
Format profile : Layer 3
Codec ID : 55
Codec ID/Hint : MP3
Duration : 1h 57mn
Bit rate mode : Constant
Bit rate : 128 Kbps
Channel count : 2 channels
Sampling rate : 48.0 KHz
Compression mode : Lossy
Stream size : 107 MiB (14%)
Alignment : Aligned on interleaves
Interleave, duration : 42 ms (1.00 video frame)
Interleave, preload duration : 504 ms
Writing library : LAME3.99r
Encoding settings : -m s -V 4 -q 0 -lowpass 17 -b 128
Скачать

Скачать торрент!

Как скачивать? · Что такое торрент? · Рейтинг и ограничения

Сайт не распространяет и не хранит электронные версии произведений, а лишь предоставляет доступ к создаваемому пользователями каталогу ссылок на торрент-файлы, которые содержат только списки хеш-сумм

[Профиль] [ЛС]
Показать сообщения:    
Ответить на тему

Текущее время: Сегодня 09:47

Часовой пояс: GMT + 4



Вы не можете начинать темы
Вы не можете отвечать на сообщения
Вы не можете редактировать свои сообщения
Вы не можете удалять свои сообщения
Вы не можете голосовать в опросах
Вы не можете прикреплять файлы к сообщениям
Вы не можете скачивать файлы