Герой / Tai Chi Hero (Стивен Фанг / Stephen Fung) [2012, Китай, боевик, приключения, HDRip] DVO [den904, DeadSno] + MVO

Ответить на тему
 
Автор Сообщение

user ®

Стаж: 11 лет

Сообщений: 15151

Пост Пост: #1 от 08-Июн-2014 18:15

[Цитировать]

Герой / Tai Chi Hero- -Страна: Китай
Жанр: боевик, приключения
Год выпуска: 2012
Продолжительность: 01:42:36-Перевод: Любительский (двухголосый закадровый) [den904, DeadSno]
Перевод: Профессиональный (многоголосый закадровый) [отдельно]-Cубтитры: нет
Оригинальная аудиодорожка: нет
Режиссер: Стивен Фанг / Stephen Fung
В ролях: Дэниэл Ву, Юань Сяочао, Ки Шу, Тони Люн Ка Фай, Анджела Бейби, Эдди Пэн, Петер Стормаре, Юэнь Бяо
Описание: Необыкновенно одарённого ребёнка Яна Лучаня все считают местным дурачком, тем не менее, мать Яна предлагает ему изучить боевые искусства. Подчинившись её желанию, Ян отправляется в отдалённую деревню Чэнь обучаться тай-цзи. В этой легендарной деревне все практикуют тай-цзи, и используют его в повседневной жизни. Однако жителям деревни запрещено раскрывать аспекты тай-цзи чужакам, и Ян узнал об этом на собственном опыте.
Релиз от -
Сэмпл:http://multi-up.com/979019
Качество видео: HDRip
Формат видео: AVI
Видео: MPEG-4 Visual at 884 Кбит/сек; 688 x 288 (2.389) at 23.976 fps
Аудио: MPEG Audio at 128 Кбит/сек; 2 канала, 48,0 КГц [DVO]
Аудио: MPEG Audio at 128 Кбит/сек; 2 канала, 48,0 КГц [MVO]
Автор:
MediaInfo
Общее
Полное имя : D:\Фильмы\Азиатские\Герой Тай-цзи\TaiChi Hero.2012.HDRip.XviD.745MB. rip by [Assassin's Creed]\TaiChi Hero.2012.HDRip.XviD.745MB. rip by [Assassin's Creed].avi
Формат : AVI
Формат/Информация : Audio Video Interleave
Размер файла : 749 Мбайт
Продолжительность : 1 ч. 42 м.
Общий поток : 1021 Кбит/сек
Программа кодирования : VirtualDubMod 1.5.10.3 | www.virtualdub-fr.org || (build 2550/release)
Библиотека кодирования : VirtualDubMod build 2550/release
Видео
Идентификатор : 0
Формат : MPEG-4 Visual
Профиль формата : Advanced Simple@L5
Параметр BVOP формата : 1
Параметр QPel формата : Нет
Параметр GMC формата : Без точки перехода
Параметр матрицы формата : Default (MPEG)
Идентификатор кодека : XVID
Идентификатор кодека/Подсказка : XviD
Продолжительность : 1 ч. 42 м.
Битрейт : 884 Кбит/сек
Ширина : 688 пикселей
Высота : 288 пикселей
Соотношение сторон : 2,40:1
Частота кадров : 23,976 кадра/сек
Цветовое пространство : YUV
Субдискретизация насыщенности : 4:2:0
Битовая глубина : 8 бит
Тип развёртки : Прогрессивная
Метод сжатия : С потерями
Бит/(Пиксели*Кадры) : 0.186
Размер потока : 649 Мбайт (87%)
Библиотека кодирования : XviD 1.2.1 (UTC 2008-12-04)
Аудио
Идентификатор : 1
Формат : MPEG Audio
Версия формата : Version 1
Профиль формата : Layer 3
Идентификатор кодека : 55
Идентификатор кодека/Подсказка : MP3
Продолжительность : 1 ч. 42 м.
Вид битрейта : Постоянный
Битрейт : 128 Кбит/сек
Каналы : 2 канала
Частота : 48,0 КГц
Метод сжатия : С потерями
Размер потока : 93,9 Мбайт (13%)
Выравнивание : Соединение по промежуткам
Продолжительность промежутка : 42 мс. (1,00 видеокадр)
Время предзагрузки промежутка : 504 мс.
Библиотека кодирования : LAME3.99r
Настройки программы : -m s -V 4 -q 2 -lowpass 17 -b 128
Общее
Полное имя : D:\Фильмы\Азиатские\Герой Тай-цзи\TaiChi Hero.2012.HDRip.XviD.745MB. rip by [Assassin's Creed]\TaiChi Hero.2012.HDRip.XviD.745MB. rip by [Assassin's Creed].torrent
Размер файла : 16,9 Кбайт
Общее
Полное имя : D:\Фильмы\Азиатские\Герой Тай-цзи\TaiChi Hero.2012.HDRip.XviD.745MB. rip by [Assassin's Creed]\TaiChi Hero.2012.HDRip.XviD.745MB.MVO. rip by [Assassin's Creed].mp3
Формат : MPEG Audio
Размер файла : 93,9 Мбайт
Продолжительность : 1 ч. 42 м.
Режим общего битрейта : Постоянный
Общий поток : 128 Кбит/сек
Библиотека кодирования : LAME3.99r
Аудио
Формат : MPEG Audio
Версия формата : Version 1
Профиль формата : Layer 3
Продолжительность : 1 ч. 42 м.
Вид битрейта : Постоянный
Битрейт : 128 Кбит/сек
Каналы : 2 канала
Частота : 48,0 КГц
Метод сжатия : С потерями
Размер потока : 93,9 Мбайт (100%)
Библиотека кодирования : LAME3.99r
Настройки программы : -m s -V 4 -q 2 -lowpass 17 -b 128
Скриншот c названием фильма Скриншоты
Скачать

Скачать торрент! Герой / Tai Chi Hero (Стивен Фанг / Stephen Fung) [2012, Китай, боевик, приключения, HDRip] DVO [den904, DeadSno] + MVO

Как скачивать? · Что такое торрент? · Рейтинг и ограничения

Сайт не распространяет и не хранит электронные версии произведений, а лишь предоставляет доступ к создаваемому пользователями каталогу ссылок на торрент-файлы, которые содержат только списки хеш-сумм

[Профиль] [ЛС]
Показать сообщения:    
Ответить на тему

Текущее время: Сегодня 05:27

Часовой пояс: GMT + 4



Вы не можете начинать темы
Вы не можете отвечать на сообщения
Вы не можете редактировать свои сообщения
Вы не можете удалять свои сообщения
Вы не можете голосовать в опросах
Вы не можете прикреплять файлы к сообщениям
Вы не можете скачивать файлы