300 спартанцев: Расцвет империи / 300: Rise of an Empire (Ноам Мурро / Noam Murro) [2014, США, фэнтези, боевик, драма, военный, BDRip-AVC] Dub (iTunes) + Sub Rus + Original Eng

Ответить на тему
 
Автор Сообщение

user ®

Стаж: 7 лет 7 месяцев

Сообщений: 20008

Пост Пост: #1 от 08-Июн-2014 18:15

[Цитировать]

300 спартанцев: Расцвет империи / 300: Rise of an Empire
Страна: США
Жанр: фэнтези, боевик, драма, военный
Год выпуска: 2014
Продолжительность: 01:42:36
Перевод: Профессиональный (дублированный) iTunes
Cубтитры: русские / английские
Оригинальная аудиодорожка: английский
Режиссер: Ноам Мурро / Noam Murro
В ролях: Салливан Степлтон, Ева Грин, Лина Хиди, Ханс Мэтисон, Родриго Санторо, Андрей Клод, Дэвид Уэнэм, Джек О`Коннелл, Марк Киллин, Эндрю Тирнан...
Описание: После победы над царем Леонидом персидская армия во главе с Ксерксом движется на юг. На её пути оказывается флот Афин под руководством адмирала Фемистокла. Силы противников не равны, и Фемистокл вынужден вступить в союз с заклятым врагом афинского государства Спартой. Только объединившись у враждующих полисов-государств есть шанс что-то противопоставить могущественному Ксерксу.
Сэмпл: http://multi-up.com/978477
Качество видео: BDRip-AVC
Формат видео: MKV
Видео: MPEG-4 AVC, 3000 Кбит/с, 1024x426, 23.976 кадр/с
Аудио: Русский (AC3, 6 ch, 384 Кбит/с) / Дублированный
Аудио 2: Английский (AC3, 6 ch, 448 Кбит/с)
Формат субтитров: softsub (SRT)
MediaInfo
C:\Users\Admin\Downloads\Downloads\фильмы\300.Spartancev.2014.BDRip.(AVC)-MediaClub.mkv
General
Unique ID : 208310053236875822821021126669849156221 (0x9CB70E929BF8BF9C95605B0F38195A7D)
Complete name : C:\Users\Admin\Downloads\Downloads\фильмы\300.Spartancev.2014.BDRip.(AVC)-MediaClub.mkv
Format : Matroska
Format version : Version 4 / Version 2
File size : 2.75 GiB
Duration : 1h 42mn
Overall bit rate : 3 829 Kbps
Movie name : -=MediaClub-kaspr=-
Encoded date : UTC 2014-06-05 14:47:39
Writing application : mkvmerge v6.9.1 ('Blue Panther') 64bit built on Apr 18 2014 18:23:38
Writing library : libebml v1.3.0 + libmatroska v1.4.1
Video #1
ID : 1
Format : AVC
Format/Info : Advanced Video Codec
Format profile : High@L4.1
Format settings, CABAC : Yes
Format settings, ReFrames : 10 frames
Codec ID : V_MPEG4/ISO/AVC
Duration : 1h 42mn
Bit rate : 3 000 Kbps
Width : 1 024 pixels
Height : 426 pixels
Display aspect ratio : 2.40:1
Frame rate mode : Constant
Frame rate : 23.976 fps
Color space : YUV
Chroma subsampling : 4:2:0
Bit depth : 8 bits
Scan type : Progressive
Bits/(Pixel*Frame) : 0.287
Stream size : 2.09 GiB (76%)
Title : -=MediaClub-kaspr=-
Writing library : x264 core 142 r2431+42 c69a006 tMod [8-bit@4:2:0 X86_64]
Encoding settings : cabac=1 / ref=10 / deblock=1:-3:-3 / analyse=0x3:0x133 / me=umh / subme=11 / psy=1 / fade_compensate=0.00 / psy_rd=1.00:0.20 / mixed_ref=1 / me_range=32 / chroma_me=1 / trellis=2 / 8x8dct=1 / cqm=0 / deadzone=21,11 / fast_pskip=0 / chroma_qp_offset=-3 / threads=12 / lookahead_threads=3 / sliced_threads=0 / nr=0 / decimate=0 / interlaced=0 / bluray_compat=0 / constrained_intra=0 / fgo=0 / bframes=14 / b_pyramid=2 / b_adapt=2 / b_bias=0 / direct=3 / weightb=1 / open_gop=0 / weightp=2 / keyint=240 / keyint_min=23 / scenecut=40 / intra_refresh=0 / rc=2pass / mbtree=0 / bitrate=3000 / ratetol=1.0 / qcomp=0.60 / qpmin=0:0:0 / qpmax=69:69:69 / qpstep=4 / cplxblur=20.0 / qblur=0.5 / ip_ratio=1.40 / pb_ratio=1.30 / aq=2:0.80 / aq-sensitivity=10.00 / aq-factor=1.00:1.00:1.00 / aq2=0 / aq3=0
Default : Yes
Forced : Yes
Audio #2
ID : 2
Format : AC-3
Format/Info : Audio Coding 3
Mode extension : CM (complete main)
Format settings, Endianness : Big
Codec ID : A_AC3
Duration : 1h 42mn
Bit rate mode : Constant
Bit rate : 384 Kbps
Channel(s) : 6 channels
Channel positions : Front: L C R, Side: L R, LFE
Sampling rate : 48.0 KHz
Bit depth : 16 bits
Compression mode : Lossy
Stream size : 282 MiB (10%)
Title : Dub
Language : Russian
Default : Yes
Forced : Yes
Audio #3
ID : 3
Format : AC-3
Format/Info : Audio Coding 3
Mode extension : CM (complete main)
Format settings, Endianness : Big
Codec ID : A_AC3
Duration : 1h 42mn
Bit rate mode : Constant
Bit rate : 448 Kbps
Channel(s) : 6 channels
Channel positions : Front: L C R, Side: L R, LFE
Sampling rate : 48.0 KHz
Bit depth : 16 bits
Compression mode : Lossy
Stream size : 329 MiB (12%)
Language : English
Default : No
Forced : No
Text #4
ID : 4
Format : UTF-8
Codec ID : S_TEXT/UTF8
Codec ID/Info : UTF-8 Plain Text
Language : Russian
Default : No
Forced : No
Text #5
ID : 5
Format : UTF-8
Codec ID : S_TEXT/UTF8
Codec ID/Info : UTF-8 Plain Text
Title : Full
Language : English
Default : No
Forced : No
Text #6
ID : 6
Format : UTF-8
Codec ID : S_TEXT/UTF8
Codec ID/Info : UTF-8 Plain Text
Title : SDH
Language : English
Default : No
Forced : No
Скриншот c названием фильма Скриншоты
Скачать

Скачать торрент!

Как скачивать? · Что такое торрент? · Рейтинг и ограничения

Сайт не распространяет и не хранит электронные версии произведений, а лишь предоставляет доступ к создаваемому пользователями каталогу ссылок на торрент-файлы, которые содержат только списки хеш-сумм

[Профиль] [ЛС]
Показать сообщения:    
Ответить на тему

Текущее время: Сегодня 10:05

Часовой пояс: GMT + 4



Вы не можете начинать темы
Вы не можете отвечать на сообщения
Вы не можете редактировать свои сообщения
Вы не можете удалять свои сообщения
Вы не можете голосовать в опросах
Вы не можете прикреплять файлы к сообщениям
Вы не можете скачивать файлы