Честь и закон / Talaashi (Шьям Рамсей / Shyam Ramsay, Тулси Рамсей / Tulsi Ramsay) [1996, Индия, Боевик, DVDRip] DVO

Ответить на тему
 
Автор Сообщение

user ®

Стаж: 12 лет

Сообщений: 15092

Пост Пост: #1 от 08-Июн-2014 15:05

[Цитировать]

Честь и закон / Talaashi
-Страна: Индия
Жанр: Боевик
Год выпуска: 1996
Продолжительность: 02:49:00-Перевод: Профессиональный (двухголосый, закадровый)
Субтитры: Нет--Режиссеры:
Шьям Рамсей / Shyam Ramsay
Тулси Рамсей / Tulsi Ramsay-В ролях: Джеки Шрофф, Джухи Чавла, Пареш Равал, Экта Сохини--Описание: Джеки - эксперт по спецэффектам в кино. Вроде бы все в его жизни складывается наилучшим образом: интересная работа, верные друзья, красавица-помощница Ниша. Но не тут-то было. Коварный министр пытается использовать профессиональные навыки Джеки для своих грязных делишек. Удастся ли герою вырваться из паутины лжи, опутавшей его со всех сторон? Убийца он или ловко подставленная наживка? Пришло время узнать правду!-- | Кинопоиск--Качество видео: DVDRip (исх. DVD9 R1)
Формат видео: AVI-Видео: 640x272 (2.35:1), 23.976 fps, XviD build 50 ~1099 kbps avg, 0.26 bit/pixel
Аудио: 48 kHz, MPEG Layer 3, 2 ch, ~128.00 kbps-Большое спасибо Mersim за оцифровку, с которой был взят звук для релиза =).--Сэмпл / Sample--Риппер, синхронизация звука: soso4eg-- -
-
-Скриншоты
-
MI
Общее
Полное имя : K:\[Релизы]\Chest.I.Zakon.1996.DVDRip.XviD.soso4eg.avi
Формат : AVI
Формат/Информация : Audio Video Interleave
Размер файла : 1,46 Гбайт
Продолжительность : 2 ч. 49 м.
Общий поток : 1237 Кбит/сек
Название фильма : Chest.I.Zakon.1996.DVDRip.XviD.soso4eg
Режиссёр : soso4eg
Программа кодирования : VirtualDubMod 1.5.10.3 | www.virtualdub-fr.org || (build 2550/release)
Формат оригинала/Имя : Movie
Правообладатель : специально для BitTorrent трекер *** (ex torrents.ru)
Примечание : пер. DVO "Другоe кино"
Видео
Идентификатор : 0
Формат : MPEG-4 Visual
Профиль формата : Advanced Simple@L5
Параметр BVOP формата : 1
Параметр QPel формата : Нет
Параметр GMC формата : Без точки перехода
Параметр матрицы формата : Default (H.263)
Идентификатор кодека : XVID
Идентификатор кодека/Подсказка : XviD
Продолжительность : 2 ч. 49 м.
Битрейт : 1100 Кбит/сек
Ширина : 640 пикселей
Высота : 272 пикселя
Соотношение сторон : 2,35:1
Частота кадров : 23,976 кадра/сек
Цветовое пространство : YUV
Субдискретизация насыщенности : 4:2:0
Битовая глубина : 8 бит
Тип развёртки : Прогрессивная
Метод сжатия : С потерями
Бит/(Пиксели*Кадры) : 0.263
Размер потока : 1,30 Гбайт (89%)
Библиотека кодирования : XviD 1.2.1 (UTC 2008-12-04)
Аудио
Идентификатор : 1
Формат : MPEG Audio
Версия формата : Version 1
Профиль формата : Layer 3
Режим : Joint stereo
Расширение режима : MS Stereo
Идентификатор кодека : 55
Идентификатор кодека/Подсказка : MP3
Продолжительность : 2 ч. 49 м.
Вид битрейта : Постоянный
Битрейт : 128 Кбит/сек
Каналы : 2 канала
Частота : 48,0 КГц
Метод сжатия : С потерями
Размер потока : 155 Мбайт (10%)
Выравнивание : Соединение по промежуткам
Продолжительность промежутка : 42 мс. (1,00 видеокадр)
Время предзагрузки промежутка : 504 мс.
Скачать

Скачать торрент! Честь и закон / Talaashi (Шьям Рамсей / Shyam Ramsay, Тулси Рамсей / Tulsi Ramsay) [1996, Индия, Боевик, DVDRip] DVO

Как скачивать? · Что такое торрент? · Рейтинг и ограничения

Сайт не распространяет и не хранит электронные версии произведений, а лишь предоставляет доступ к создаваемому пользователями каталогу ссылок на торрент-файлы, которые содержат только списки хеш-сумм

[Профиль] [ЛС]
Показать сообщения:    
Ответить на тему

Текущее время: Сегодня 15:33

Часовой пояс: GMT + 4



Вы не можете начинать темы
Вы не можете отвечать на сообщения
Вы не можете редактировать свои сообщения
Вы не можете удалять свои сообщения
Вы не можете голосовать в опросах
Вы не можете прикреплять файлы к сообщениям
Вы не можете скачивать файлы