Бадаль / Baadal (Ананд Сагар / Anand Sagar) [1985, Индия, Мелодрама, DVDRip] Sub Rus

Ответить на тему
 
Автор Сообщение

user ®

Стаж: 13 лет

Сообщений: 15070

Пост Пост: #1 от 08-Июн-2014 11:55

[Цитировать]

Бадаль / Baadal
Страна: Индия
Жанр: Мелодрама
Год выпуска: 1985
Продолжительность: 02:25:54
Перевод: Субтитры
Cубтитры: русские
Оригинальная аудиодорожка: хинди
Режиссер: Ананд Сагар / Anand Sagar
В ролях: Шамми Капур, Митхун Чакраборти, Пунам Диллон, Арун Говиль, Шакти Капур, Мадху Капур, Аша Лата, Джайшри Т., Мадан Пури, Рахендра Нат
Описание: Бадаль (Митхун) и Минакши (Пунам) дружат друг с другом. Постепенно дружба переростает в любовь. И все бы хорошо, да только их семьи враждуют между собой. Сумеют ли Бадаль и Минакши пройти через все препятствия? Выдержит ли их любовь непонимание и предательство, вы узнаете, посмотрев этот фильм.
Доп. информация: Перевод субтитров Марик (Спасибо!)
Сэмпл: http://multi-up.com/978916
Качество видео: DVDRip
Формат видео: AVI
Видео: DivX Codec 6.8.5/6.9.1, 560x416 (1.35:1), 29.970 fps, 1200 kbps avg
Аудио: Хинди AC3 Dolby Digital, 48 kHz, 2/0 (L,R) ch, 192.00 kbps avg
Формат субтитров: hardsub (неотключаемые)
Доп. информация о субтитрах: Автор: Марик
MediaInfo
eneral
Complete name : D:\Baаdal.1985.DivX.DVDRip.avi
Format : AVI
Format/Info : Audio Video Interleave
File size : 1.43 GiB
Duration : 2h 25mn
Overall bit rate : 1 404 Kbps
Writing application : VirtualDubMod 1.5.10.2 (build 2540/release)
Writing library : VirtualDubMod build 2540/release
Video
ID : 0
Format : MPEG-4 Visual
Format settings, BVOP : Yes
Format settings, QPel : No
Format settings, GMC : No warppoints
Format settings, Matrix : Default (H.263)
Muxing mode : Packed bitstream
Codec ID : DX50
Codec ID/Hint : DivX 5
Duration : 2h 25mn
Bit rate : 1 200 Kbps
Width : 560 pixels
Height : 416 pixels
Display aspect ratio : 4/3
Frame rate : 29.970 fps
Resolution : 24 bits
Colorimetry : 4:2:0
Scan type : Progressive
Bits/(Pixel*Frame) : 0.172
Stream size : 1.22 GiB (85%)
Writing library : DivX 6.8.5
Audio
ID : 1
Format : AC-3
Format/Info : Audio Coding 3
Codec ID : 2000
Duration : 2h 25mn
Bit rate mode : Constant
Bit rate : 192 Kbps
Channel(s) : 2 channels
Channel positions : L R
Sampling rate : 48.0 KHz
Stream size : 200 MiB (14%)
Alignment : Split accross interleaves
Interleave, duration : 33 ms (1.00 video frame)
Interleave, preload duration : 500 ms
Скриншоты
Скачать

Скачать торрент! Бадаль / Baadal (Ананд Сагар / Anand Sagar) [1985, Индия, Мелодрама, DVDRip] Sub Rus

Как скачивать? · Что такое торрент? · Рейтинг и ограничения

Сайт не распространяет и не хранит электронные версии произведений, а лишь предоставляет доступ к создаваемому пользователями каталогу ссылок на торрент-файлы, которые содержат только списки хеш-сумм

[Профиль] [ЛС]
Показать сообщения:    
Ответить на тему

Текущее время: Сегодня 15:50

Часовой пояс: GMT + 4



Вы не можете начинать темы
Вы не можете отвечать на сообщения
Вы не можете редактировать свои сообщения
Вы не можете удалять свои сообщения
Вы не можете голосовать в опросах
Вы не можете прикреплять файлы к сообщениям
Вы не можете скачивать файлы