Моя Большая Индийская Бабочка / Индийская бабочка / The Great Indian Butterfly (Сартхак Дасгупта / Sarthak Dasgupta) [2007, Индия, Драма, DVDRip] MVO (Red Media)

Ответить на тему
 
Автор Сообщение

user ®

Стаж: 13 лет

Сообщений: 15070

Пост Пост: #1 от 08-Июн-2014 03:45

[Цитировать]

Моя Большая Индийская Бабочка / Индийская бабочка / The Great Indian Butterfly
Страна: Индия
Жанр: Драма
Год выпуска: 2007
Продолжительность: 01:33:50
Перевод: Профессиональный (многоголосый закадровый) Red Media
Cубтитры: английские (вшитые на хинди речь)
Режиссер: Сартхак Дасгупта / Sarthak Dasgupta
В ролях: Амир Башир, Шибани Кашьяп, Бэрри Джон, Гуров Дасгупта, Сандхья Мридул, Коэль Пури
Описание: Криш и Мира, молодая индийская пара, устали от бесконечной борьбы за рост по карьерной лестнице. Они решают отправиться в путешествие, чтобы найти легендарную большую индийскую бабочку, которая может принести им успех и счастье...
Доп. информация: Исходник DVD-9 (СПАСИБО! Dog67)
Сэмпл: http://multi-up.com/978802
Качество видео: DVDRip
Формат видео: AVI
Видео: XviD build 50, 720x400 (1.80:1), 23.976 fps, 1768 kbps avg
Аудио: AC3 Dolby Digital, 48 kHz, 3/2 (L,C,R,l,r) + LFE ch, 448.00 kbps avg
MediaInfo
General
Complete name : D:\Moya.bolschaya.indiiskaya.babochka.2007.DVDRip-Dego.avi
Format : AVI
Format/Info : Audio Video Interleave
File size : 1.46 GiB
Duration : 1h 33mn
Overall bit rate : 2 225 Kbps
Writing application : VirtualDubMod 1.5.10.2 (build 2540/release)
Writing library : VirtualDubMod build 2540/release
Video
ID : 0
Format : MPEG-4 Visual
Format profile : AdvancedSimple@L5
Format settings, BVOP : Yes
Format settings, QPel : No
Format settings, GMC : No warppoints
Format settings, Matrix : Custom
Codec ID : XVID
Codec ID/Hint : XviD
Duration : 1h 33mn
Bit rate : 1 768 Kbps
Width : 720 pixels
Height : 400 pixels
Display aspect ratio : 16/9
Frame rate : 23.976 fps
Resolution : 24 bits
Colorimetry : 4:2:0
Scan type : Progressive
Bits/(Pixel*Frame) : 0.256
Stream size : 1.16 GiB (79%)
Writing library : XviD 1.2.1 (UTC 2008-12-04)
Audio
ID : 1
Format : AC-3
Format/Info : Audio Coding 3
Codec ID : 2000
Duration : 1h 33mn
Bit rate mode : Constant
Bit rate : 448 Kbps
Channel(s) : 6 channels
Channel positions : Front: L C R, Surround: L R, LFE
Sampling rate : 48.0 KHz
Stream size : 301 MiB (20%)
Alignment : Split accross interleaves
Interleave, duration : 42 ms (1.00 video frame)
Interleave, preload duration : 500 ms
Скриншоты
Скачать

Скачать торрент! Моя Большая Индийская Бабочка / Индийская бабочка / The Great Indian Butterfly (Сартхак Дасгупта / Sarthak Dasgupta) [2007, Индия, Драма, DVDRip] MVO (Red Media)

Как скачивать? · Что такое торрент? · Рейтинг и ограничения

Сайт не распространяет и не хранит электронные версии произведений, а лишь предоставляет доступ к создаваемому пользователями каталогу ссылок на торрент-файлы, которые содержат только списки хеш-сумм

[Профиль] [ЛС]
Показать сообщения:    
Ответить на тему

Текущее время: Сегодня 16:54

Часовой пояс: GMT + 4



Вы не можете начинать темы
Вы не можете отвечать на сообщения
Вы не можете редактировать свои сообщения
Вы не можете удалять свои сообщения
Вы не можете голосовать в опросах
Вы не можете прикреплять файлы к сообщениям
Вы не можете скачивать файлы