Отель «Гранд Будапешт» / The Grand Budapest Hotel (Уэс Андерсон / Wes Anderson) [2014, Комедия, детектив, приключения, криминал, BDRip-AVC] Dub (BD CEE) + Otiginal (Eng) + Sub (rus., ukr., eng.)

Ответить на тему
 
Автор Сообщение

user ®

Стаж: 7 лет 7 месяцев

Сообщений: 20008

Пост Пост: #1 от 07-Июн-2014 21:25

[Цитировать]

Отель «Гранд Будапешт» / The Grand Budapest Hotel-
Страна: Великобритания, Германия / American Empirical Pictures, Studio Babelsberg, Scott Rudin Productions
Жанр: Комедия, детектив, приключения, криминал
Год выпуска: 2014
Продолжительность: 01:39:54
Перевод: Профессиональный (дублированный) [BD CEE]
Cубтитры: русские, украинские, английские (Forced + Full + SDH)
Формат субтитров: softsub (SRT)
Оригинальная аудиодорожка: английский-Режиссер: Уэс Андерсон / Wes Anderson
В ролях: Рэйф Файнс, Тони Револори, Сирша Ронан, Эдриан Броуди, Уиллем Дефо, Ф. Мюррэй Абрахам, Джуд Лоу, Эдвард Нортон, Джефф Голдблюм, Харви Кейтель
Описание: Фильм рассказывает об увлекательных приключениях легендарного консьержа Густава и его юного друга, портье Зеро Мустафы. Сотрудники гостиницы становятся свидетелями кражи и поисков бесценных картин эпохи Возрождения, борьбы за огромное состояние богатой семьи и… драматических изменений в Европе между двумя кровопролитными войнами XX века.

Релиз от:
Автор рипа: potroks-Качество видео: BDRip-AVC [THE_GRAND_BUDAPEST_HOTEL_HDCLUB]
Формат видео: MKV
Видео: х.264, 960x518 (1,85:1), 23,976 fps, 1324 Кbps, 0.111 bit/pixel
Аудио#1: 48 kHz, AC3 Dolby Digital, 3/2 (L,C,R,l,r) + LFE ch, 384.00 kbps | RUS
Аудио#2: 48 kHz, AC3 Dolby Digital, 3/2 (L,C,R,l,r) + LFE ch, 384.00 kbps | ENG

MediaInfo
Общее
Уникальный идентификатор : 178682992248191515643826652387313664740 (0x866D17B0333AF41B8FAE840B959B42E4)
Полное имя : Otel'.Grand.Budapesht.2014.DUAL.BDRip.x264.-HELLYWOOD.mkv
Формат : Matroska
Версия формата : Version 4 / Version 2
Размер файла : 1,46 Гбайт
Продолжительность : 1 ч. 39 м.
Общий поток : 2091 Кбит/сек
Название фильма : HELLYWOOD - rip by potroks
Дата кодирования : UTC 2014-06-07 06:44:37
Программа кодирования : mkvmerge v5.9.0 ('On The Loose') built on Dec 15 2012 16:39:58
Библиотека кодирования : libebml v1.3.0 + libmatroska v1.4.0
Видео
Идентификатор : 1
Формат : AVC
Формат/Информация : Advanced Video Codec
Профиль формата : High@L4.1
Параметр CABAC формата : Да
Параметр ReFrames формата : 12 кадров
Идентификатор кодека : V_MPEG4/ISO/AVC
Продолжительность : 1 ч. 39 м.
Битрейт : 1324 Кбит/сек
Ширина : 960 пикселей
Высота : 518 пикселей
Соотношение сторон : 1,85:1
Режим частоты кадров : Постоянный
Частота кадров : 23,976 кадра/сек
Цветовое пространство : YUV
Субдискретизация насыщенности : 4:2:0
Битовая глубина : 8 бит
Тип развёртки : Прогрессивная
Бит/(Пиксели*Кадры) : 0.111
Размер потока : 915 Мбайт (61%)
Заголовок : The Grand Budapest Hotel
Библиотека кодирования : x264 core 130 r2273 b3065e6
Настройки программы : cabac=1 / ref=12 / deblock=1:-3:-3 / analyse=0x3:0x133 / me=umh / subme=11 / psy=1 / psy_rd=0.96:0.00 / mixed_ref=1 / me_range=48 / chroma_me=1 / trellis=2 / 8x8dct=1 / cqm=0 / deadzone=21,11 / fast_pskip=0 / chroma_qp_offset=-2 / threads=9 / lookahead_threads=6 / sliced_threads=0 / nr=0 / decimate=0 / interlaced=0 / bluray_compat=0 / constrained_intra=0 / bframes=13 / b_pyramid=2 / b_adapt=2 / b_bias=0 / direct=3 / weightb=1 / open_gop=0 / weightp=2 / keyint=250 / keyint_min=23 / scenecut=40 / intra_refresh=0 / rc_lookahead=60 / rc=2pass / mbtree=0 / bitrate=1324 / ratetol=1.0 / qcomp=0.70 / qpmin=0 / qpmax=69 / qpstep=4 / cplxblur=20.0 / qblur=0.5 / vbv_maxrate=20000 / vbv_bufsize=20000 / nal_hrd=none / ip_ratio=1.35 / pb_ratio=1.25 / aq=1:0.90
Язык : English
Default : Да
Forced : Нет
Аудио #1
Идентификатор : 2
Формат : AC-3
Формат/Информация : Audio Coding 3
Расширение режима : CM (complete main)
Параметр Endianness формата : Big
Идентификатор кодека : A_AC3
Продолжительность : 1 ч. 39 м.
Вид битрейта : Постоянный
Битрейт : 384 Кбит/сек
Каналы : 6 каналов
Расположение каналов : Front: L C R, Side: L R, LFE
Частота : 48,0 КГц
Битовая глубина : 16 бит
Метод сжатия : С потерями
Размер потока : 274 Мбайт (18%)
Заголовок : Dub | DD 5.1 @ 384 kbps - BD CEE
Язык : Russian
Default : Да
Forced : Нет
Аудио #2
Идентификатор : 3
Формат : AC-3
Формат/Информация : Audio Coding 3
Расширение режима : CM (complete main)
Параметр Endianness формата : Big
Идентификатор кодека : A_AC3
Продолжительность : 1 ч. 39 м.
Вид битрейта : Постоянный
Битрейт : 384 Кбит/сек
Каналы : 6 каналов
Расположение каналов : Front: L C R, Side: L R, LFE
Частота : 48,0 КГц
Битовая глубина : 16 бит
Метод сжатия : С потерями
Размер потока : 274 Мбайт (18%)
Заголовок : Original | DD 5.1 @ 384 kbps - BD CEE
Язык : English
Default : Нет
Forced : Нет
Текст #1
Идентификатор : 4
Формат : UTF-8
Идентификатор кодека : S_TEXT/UTF8
Идентификатор кодека/Информация : UTF-8 Plain Text
Язык : Russian
Default : Нет
Forced : Нет
Текст #2
Идентификатор : 5
Формат : UTF-8
Идентификатор кодека : S_TEXT/UTF8
Идентификатор кодека/Информация : UTF-8 Plain Text
Язык : Ukrainian
Default : Нет
Forced : Нет
Текст #3
Идентификатор : 6
Формат : UTF-8
Идентификатор кодека : S_TEXT/UTF8
Идентификатор кодека/Информация : UTF-8 Plain Text
Заголовок : Forced
Язык : English
Default : Нет
Forced : Нет
Текст #4
Идентификатор : 7
Формат : UTF-8
Идентификатор кодека : S_TEXT/UTF8
Идентификатор кодека/Информация : UTF-8 Plain Text
Заголовок : Full
Язык : English
Default : Нет
Forced : Нет
Текст #5
Идентификатор : 8
Формат : UTF-8
Идентификатор кодека : S_TEXT/UTF8
Идентификатор кодека/Информация : UTF-8 Plain Text
Заголовок : SDH
Язык : English
Default : Нет
Forced : Нет
Меню
00:00:00.000 : en:(01)00:00:00:000
00:02:55.884 : en:(02)00:02:55:884
00:06:00.151 : en:(03)00:06:00:151
00:08:28.132 : en:(04)00:08:28:132
00:11:32.608 : en:(05)00:11:32:608
00:14:17.189 : en:(06)00:14:17:189
00:17:39.600 : en:(07)00:17:39:600
00:19:56.236 : en:(08)00:19:56:236
00:23:08.803 : en:(09)00:23:08:803
00:25:35.408 : en:(10)00:25:35:408
00:29:30.310 : en:(11)00:29:30:310
00:32:11.762 : en:(12)00:32:11:762
00:34:16.262 : en:(13)00:34:16:262
00:35:51.649 : en:(14)00:35:51:649
00:38:58.043 : en:(15)00:38:58:043
00:40:18.832 : en:(16)00:40:18:832
00:41:43.792 : en:(17)00:41:43:792
00:45:22.761 : en:(18)00:45:22:761
00:48:22.649 : en:(19)00:48:22:649
00:51:53.026 : en:(20)00:51:53:026
00:55:18.273 : en:(21)00:55:18:273
00:59:08.544 : en:(22)00:59:08:544
01:04:17.019 : en:(23)01:04:17:019
01:08:34.985 : en:(24)01:08:34:985
01:12:20.460 : en:(25)01:12:20:460
01:16:18.907 : en:(26)01:16:18:907
01:17:41.489 : en:(27)01:17:41:489
01:20:47.800 : en:(28)01:20:47:800
01:24:02.370 : en:(29)01:24:02:370
01:27:08.556 : en:(30)01:27:08:556
01:30:55.908 : en:(31)01:30:55:908
01:32:57.363 : en:(32)01:32:57:363
01:39:54.780 : en:(33)01:39:54:780
Скриншоты
Скачать

Скачать торрент!

Как скачивать? · Что такое торрент? · Рейтинг и ограничения

Сайт не распространяет и не хранит электронные версии произведений, а лишь предоставляет доступ к создаваемому пользователями каталогу ссылок на торрент-файлы, которые содержат только списки хеш-сумм

[Профиль] [ЛС]
Показать сообщения:    
Ответить на тему

Текущее время: Сегодня 00:11

Часовой пояс: GMT + 4



Вы не можете начинать темы
Вы не можете отвечать на сообщения
Вы не можете редактировать свои сообщения
Вы не можете удалять свои сообщения
Вы не можете голосовать в опросах
Вы не можете прикреплять файлы к сообщениям
Вы не можете скачивать файлы