Полицейская история 2013 / Police Story 2013 / Jing cha gu shi 2013 (Дин Шэн / Ding Sheng) [2013, Китай, Гонконг, Криминал, драма, триллер, боевик, BDRip-AVC] AVO (С.Визгунов) + Original (CHI) + Sub (eng)

Ответить на тему
 
Автор Сообщение

user ®

Стаж: 11 лет

Сообщений: 15151

Пост Пост: #1 от 07-Июн-2014 16:20

[Цитировать]

Полицейская история 2013 / Police Story 2013 / Jing cha gu shi 2013
Страна: Китай, Гонконг / China Vision Group, Wanda Media Co.
Жанр: Криминал, драма, триллер, боевик
Год выпуска: 2013
Продолжительность: 01:50:07-Перевод: Авторский (одноголосый закадровый) [С.Визгунов]
Cубтитры: английские
Формат субтитров: softsub (SRT)
Оригинальная аудиодорожка: английский-Режиссер: Дин Шэн / Ding Sheng
В ролях: Джеки Чан, Лю Е, Тянь Цзин, Вэй На, Юй Жун Гуан, Александр Байли, Макс Хуан, Лью Пэйци, Ивэй Лау, Джеймс Лоджа
Описание: История начинается с того, что посетители паба оказываются взятыми в заложники. Среди посетителей есть офицер полиции Вэнь Чжун и его непослушная дочь Мяомяо. Человек, удерживающий всех в заложниках — владелец паба, который таким образом пытается добиться освобождения из тюрьмы одного преступника…-
Релиз от:
Автор рипа: potroks-Качество видео: BDRip-AVC [Police Story 2013 Blu-ray 1080p AVC DTS HD MA 5.1-HDWinG]
Формат видео: MKV
Видео: х.264, 960x408 (2,35:1), 24,000 fps, 1937 Кbps, 0.206 bit/pixel
Аудио#1: 48 kHz, AC3 Dolby Digital, 3/2 (L,C,R,l,r) + LFE ch, 448.00 kbps | RUS
Аудио#2: 48 kHz, AC3 Dolby Digital, 3/2 (L,C,R,l,r) + LFE ch, 448.00 kbps | CHI
-Цитата:
Перевод С.Визгунова выполнен спонсорами ресурса e180.
Всем СПАСИБО!
MediaInfo
Общее
Уникальный идентификатор : 231547593798119540751618641752233408118 (0xAE3271C72014275190868B8C4BF4F676)
Полное имя : Policeyskaya.Istoriya.2013.DUAL.BDRip.x264.-HELLYWOOD.mkv
Формат : Matroska
Версия формата : Version 4 / Version 2
Размер файла : 2,18 Гбайт
Продолжительность : 1 ч. 50 м.
Общий поток : 2835 Кбит/сек
Название фильма : HELLYWOOD - rip by potroks
Дата кодирования : UTC 2014-06-02 15:57:25
Программа кодирования : mkvmerge v5.9.0 ('On The Loose') built on Dec 15 2012 16:39:58
Библиотека кодирования : libebml v1.3.0 + libmatroska v1.4.0
Видео
Идентификатор : 1
Формат : AVC
Формат/Информация : Advanced Video Codec
Профиль формата : High@L4.1
Параметр CABAC формата : Да
Параметр ReFrames формата : 12 кадров
Идентификатор кодека : V_MPEG4/ISO/AVC
Продолжительность : 1 ч. 50 м.
Битрейт : 1937 Кбит/сек
Ширина : 960 пикселей
Высота : 408 пикселей
Соотношение сторон : 2,35:1
Режим частоты кадров : Постоянный
Частота кадров : 24,000 кадра/сек
Цветовое пространство : YUV
Субдискретизация насыщенности : 4:2:0
Битовая глубина : 8 бит
Тип развёртки : Прогрессивная
Бит/(Пиксели*Кадры) : 0.206
Размер потока : 1,45 Гбайт (66%)
Заголовок : Jing cha gu shi 2013
Библиотека кодирования : x264 core 130 r2273 b3065e6
Настройки программы : cabac=1 / ref=12 / deblock=1:-2:-2 / analyse=0x3:0x133 / me=umh / subme=11 / psy=1 / psy_rd=1.01:0.03 / mixed_ref=1 / me_range=32 / chroma_me=1 / trellis=2 / 8x8dct=1 / cqm=0 / deadzone=21,11 / fast_pskip=0 / chroma_qp_offset=-3 / threads=9 / lookahead_threads=6 / sliced_threads=0 / nr=0 / decimate=0 / interlaced=0 / bluray_compat=0 / constrained_intra=0 / bframes=13 / b_pyramid=2 / b_adapt=2 / b_bias=0 / direct=3 / weightb=1 / open_gop=0 / weightp=2 / keyint=250 / keyint_min=23 / scenecut=40 / intra_refresh=0 / rc_lookahead=60 / rc=2pass / mbtree=0 / bitrate=1937 / ratetol=1.0 / qcomp=0.70 / qpmin=0 / qpmax=69 / qpstep=4 / cplxblur=20.0 / qblur=0.5 / vbv_maxrate=20000 / vbv_bufsize=20000 / nal_hrd=none / ip_ratio=1.35 / pb_ratio=1.25 / aq=1:0.80
Язык : Chinese
Default : Да
Forced : Нет
Аудио #1
Идентификатор : 2
Формат : AC-3
Формат/Информация : Audio Coding 3
Расширение режима : CM (complete main)
Параметр Endianness формата : Big
Идентификатор кодека : A_AC3
Продолжительность : 1 ч. 50 м.
Вид битрейта : Постоянный
Битрейт : 448 Кбит/сек
Каналы : 6 каналов
Расположение каналов : Front: L C R, Side: L R, LFE
Частота : 48,0 КГц
Битовая глубина : 16 бит
Метод сжатия : С потерями
Размер потока : 353 Мбайт (16%)
Заголовок : AVO | DD 5.1 @ 448 kbps - С.Визгунов
Язык : Russian
Default : Да
Forced : Нет
Аудио #2
Идентификатор : 3
Формат : AC-3
Формат/Информация : Audio Coding 3
Расширение режима : CM (complete main)
Параметр Endianness формата : Big
Идентификатор кодека : A_AC3
Продолжительность : 1 ч. 50 м.
Вид битрейта : Постоянный
Битрейт : 448 Кбит/сек
Каналы : 6 каналов
Расположение каналов : Front: L C R, Side: L R, LFE
Частота : 48,0 КГц
Битовая глубина : 16 бит
Метод сжатия : С потерями
Размер потока : 353 Мбайт (16%)
Заголовок : Original | DD 5.1 @ 448 kbps
Язык : Chinese
Default : Нет
Forced : Нет
Текст
Идентификатор : 4
Формат : UTF-8
Идентификатор кодека : S_TEXT/UTF8
Идентификатор кодека/Информация : UTF-8 Plain Text
Язык : English
Default : Нет
Forced : Нет
Меню
00:09:49.000 : en:(01)00:09:49:000
00:19:52.000 : en:(02)00:19:52:000
00:28:14.625 : en:(03)00:28:14:625
00:37:56.000 : en:(04)00:37:56:000
00:47:41.000 : en:(05)00:47:41:000
00:56:41.000 : en:(06)00:56:41:000
01:05:11.000 : en:(07)01:05:11:000
01:15:06.000 : en:(08)01:15:06:000
01:25:26.000 : en:(09)01:25:26:000
01:34:59.000 : en:(10)01:34:59:000
01:43:00.000 : en:(11)01:43:00:000
01:50:07.000 : en:(12)01:50:07:000
Скриншоты
Скачать

Скачать торрент! Полицейская история 2013 / Police Story 2013 / Jing cha gu shi 2013 (Дин Шэн / Ding Sheng) [2013, Китай, Гонконг, Криминал, драма, триллер, боевик, BDRip-AVC] AVO (С.Визгунов) + Original (CHI) + Sub (eng)

Как скачивать? · Что такое торрент? · Рейтинг и ограничения

Сайт не распространяет и не хранит электронные версии произведений, а лишь предоставляет доступ к создаваемому пользователями каталогу ссылок на торрент-файлы, которые содержат только списки хеш-сумм

[Профиль] [ЛС]
Показать сообщения:    
Ответить на тему

Текущее время: Сегодня 01:04

Часовой пояс: GMT + 4



Вы не можете начинать темы
Вы не можете отвечать на сообщения
Вы не можете редактировать свои сообщения
Вы не можете удалять свои сообщения
Вы не можете голосовать в опросах
Вы не можете прикреплять файлы к сообщениям
Вы не можете скачивать файлы