Полицейская история 2013 / Police Story 2013 / Jing cha gu shi 2013 (Дин Шэн / Ding Sheng) [2013 г., Китай, Гонконг, криминал, драма, триллер, боевик, BDRip] AVO (Визгунов) + Original (Chi)

Ответить на тему
 
Автор Сообщение

user ®

Стаж: 11 лет

Сообщений: 15151

Пост Пост: #1 от 07-Июн-2014 16:20

[Цитировать]

--Полицейская история 2013 / Jing cha gu shi 2013«His code name is Condor. In the next twenty-four hours everyone he trusts will try to kill him»-- Страна: Китай, Гонконг
Жанр: криминал, драма, триллер, боевик
Год выхода: 2013
Продолжительность: 01:50:07
Перевод: авторский (Сергей Визгунов)
Субтитры: нет
Оригинальная аудиодорожка: китайская
Режиссер: Дин Шэн
В ролях: Джеки Чан, Лю Е, Тянь Цзин, Вэй На, Юй Жун Гуан, Александр Байли, Макс Хуан, Лью Пэйци, Ивэй Лау, Джеймс Лоджа
О фильме: История начинается с того, что посетители паба оказываются взятыми в заложники. Среди посетителей есть офицер полиции Вэнь Чжун и его непослушная дочь Мяомяо. Человек, удерживающий всех в заложниках — владелец паба, который таким образом пытается добиться освобождения из тюрьмы одного преступника…

Релиз от -
Автор: Gellard
Сэмпл: скачать
Качество: BDRip (источник: HDCLUB / Blu-Ray Remux / 1080p)
Формат: AVI
Видео: 720x304 (2.37:1), 24 fps, XviD build 65 ~2060 kbps avg, 0.39 bit/pixel
Аудио #1: (AVO.VIZGUNOV) 48 kHz, AC3 Dolby Digital, 3/2 (L,C,R,l,r) + LFE ch, 384.00 kbps avg
Аудио #2: (CHI) 48 kHz, AC3 Dolby Digital, 3/2 (L,C,R,l,r) + LFE ch, 384.00 kbps avg-
-
Скриншоты
Скриншот с названием
MediaInfo
General
Complete name                            : Policejskaya.istoriya.2013.DUAL.BDRip.XviD.AC3.-HQCLUB.avi
Format                                   : AVI
Format/Info                              : Audio Video Interleave
Format profile                           : OpenDML
File size                                : 2.18 GiB
Duration                                 : 1h 50mn
Overall bit rate                         : 2 835 Kbps
Movie name                               : Полицейская история 2013 / Jing cha gu shi 2013 (2013) BDRip
Director                                 : Gellard
Genre                                    : криминал, драма, триллер
Writing application                      : VirtualDubMod 1.5.10.2 (build 2542/release)
Copyright                                : HQCLUB
Comment                                  : 07.06.2014
Video
ID                                       : 0
Format                                   : MPEG-4 Visual
Format profile                           : Advanced Simple@L5
Format settings, BVOP                    : 1
Format settings, QPel                    : No
Format settings, GMC                     : No warppoints
Format settings, Matrix                  : Custom
Codec ID                                 : XVID
Codec ID/Hint                            : XviD
Duration                                 : 1h 50mn
Bit rate                                 : 2 050 Kbps
Width                                    : 720 pixels
Height                                   : 304 pixels
Display aspect ratio                     : 2.35:1
Frame rate                               : 24.000 fps
Color space                              : YUV
Chroma subsampling                       : 4:2:0
Bit depth                                : 8 bits
Scan type                                : Progressive
Compression mode                         : Lossy
Bits/(Pixel*Frame)                       : 0.390
Stream size                              : 1.58 GiB (72%)
Writing library                          : XviD 65
Audio #1
ID                                       : 1
Format                                   : AC-3
Format/Info                              : Audio Coding 3
Mode extension                           : CM (complete main)
Format settings, Endianness              : Big
Codec ID                                 : 2000
Duration                                 : 1h 50mn
Bit rate mode                            : Constant
Bit rate                                 : 384 Kbps
Channel count                            : 6 channels
Channel positions                        : Front: L C R, Side: L R, LFE
Sampling rate                            : 48.0 KHz
Bit depth                                : 16 bits
Compression mode                         : Lossy
Stream size                              : 302 MiB (14%)
Alignment                                : Split accross interleaves
Interleave, duration                     : 42 ms (1.00 video frame)
Interleave, preload duration             : 500 ms
Audio #2
ID                                       : 2
Format                                   : AC-3
Format/Info                              : Audio Coding 3
Mode extension                           : CM (complete main)
Format settings, Endianness              : Big
Codec ID                                 : 2000
Duration                                 : 1h 50mn
Bit rate mode                            : Constant
Bit rate                                 : 384 Kbps
Channel count                            : 6 channels
Channel positions                        : Front: L C R, Side: L R, LFE
Sampling rate                            : 48.0 KHz
Bit depth                                : 16 bits
Compression mode                         : Lossy
Stream size                              : 302 MiB (14%)
Alignment                                : Split accross interleaves
Interleave, duration                     : 42 ms (1.00 video frame)
Interleave, preload duration             : 500 ms
Скачать

Скачать торрент! Полицейская история 2013 / Police Story 2013 / Jing cha gu shi 2013 (Дин Шэн / Ding Sheng) [2013 г., Китай, Гонконг, криминал, драма, триллер, боевик, BDRip] AVO (Визгунов) + Original (Chi)

Как скачивать? · Что такое торрент? · Рейтинг и ограничения

Сайт не распространяет и не хранит электронные версии произведений, а лишь предоставляет доступ к создаваемому пользователями каталогу ссылок на торрент-файлы, которые содержат только списки хеш-сумм

[Профиль] [ЛС]
Показать сообщения:    
Ответить на тему

Текущее время: Сегодня 20:13

Часовой пояс: GMT + 4



Вы не можете начинать темы
Вы не можете отвечать на сообщения
Вы не можете редактировать свои сообщения
Вы не можете удалять свои сообщения
Вы не можете голосовать в опросах
Вы не можете прикреплять файлы к сообщениям
Вы не можете скачивать файлы