Профессия киллер / Chuen jik sat sau / Full-Time Hitman (Джонни То, Вай Ка-Фай / Johnnie To, Wai Ka Fai) [2001, Гонконг, Боевик, триллер, драма, криминал, DVDRip] MVO

Ответить на тему
 
Автор Сообщение

user ®

Стаж: 11 лет

Сообщений: 15151

Пост Пост: #1 от 06-Июн-2014 22:10

[Цитировать]

Профессия киллер / Chuen jik sat sau / Full-Time Hitman
Страна: Гонконг
Жанр: Боевик, триллер, драма, криминал
Год выпуска: 2001
Продолжительность: 01:40:25
Перевод: Профессиональный (многоголосый закадровый)
Cубтитры: нет
Режиссеры: Джонни То, Вай Ка-Фай / Johnnie To, Wai Ka Fai
В ролях: Энди Лау, Такаси Соримати, Саймон Ям, Келли Лин, Черрие Йинг, Сует Лам, Тедди Лин
Описание: Много лет профессиональный киллер О жил в изолированном мире убийств и одиночества. Такая жизнь становится совсем невыносимой после смерти его любви Нэнси. Когда он встречает наивного Чина что-то начинает меняться… Чин, которого О нанял для уборки своей квартиры, никогда не видел своего работодателя. Однако вскоре, яркий и беспечный Ток входит в жизнь Чина с миссией, выяснить, что за человек О, и занять его место в игре — место киллера номер один...
Сэмпл: http://multi-up.com/978705
Качество видео: DVDRip
Формат видео: AVI
Видео: XviD build 50, 640x368 (1.74:1), 23.976 fps, 900 kbps avg
Аудио: MPEG Layer 3, 48 kHz, 2/0 (L,R) ch, 128.00 kbps avg
MediaInfo
General
Complete name : D:\Professija.killer.2001.DVDRip-Dego.avi
Format : AVI
Format/Info : Audio Video Interleave
File size : 746 MiB
Duration : 1h 40mn
Overall bit rate : 1 038 Kbps
Writing application : VirtualDubMod 1.5.10.2 (build 2540/release)
Writing library : VirtualDubMod build 2540/release
Video
ID : 0
Format : MPEG-4 Visual
Format profile : AdvancedSimple@L5
Format settings, BVOP : Yes
Format settings, QPel : No
Format settings, GMC : No warppoints
Format settings, Matrix : Custom
Codec ID : XVID
Codec ID/Hint : XviD
Duration : 1h 40mn
Bit rate : 901 Kbps
Width : 640 pixels
Height : 368 pixels
Display aspect ratio : 16/9
Frame rate : 23.976 fps
Resolution : 24 bits
Colorimetry : 4:2:0
Scan type : Progressive
Bits/(Pixel*Frame) : 0.160
Stream size : 647 MiB (87%)
Writing library : XviD 1.2.1 (UTC 2008-12-04)
Audio
ID : 1
Format : MPEG Audio
Format version : Version 1
Format profile : Layer 3
Codec ID : 55
Codec ID/Hint : MP3
Duration : 1h 40mn
Bit rate mode : Constant
Bit rate : 128 Kbps
Channel(s) : 2 channels
Sampling rate : 48.0 KHz
Resolution : 16 bits
Stream size : 91.9 MiB (12%)
Alignment : Aligned on interleaves
Interleave, duration : 42 ms (1.00 video frame)
Interleave, preload duration : 504 ms
Writing library : LAME3.98r
Encoding settings : -m s -V 4 -q 2 -lowpass 17 -b 128
Скриншоты
Скачать

Скачать торрент! Профессия киллер / Chuen jik sat sau / Full-Time Hitman (Джонни То, Вай Ка-Фай / Johnnie To, Wai Ka Fai) [2001, Гонконг, Боевик, триллер, драма, криминал, DVDRip] MVO

Как скачивать? · Что такое торрент? · Рейтинг и ограничения

Сайт не распространяет и не хранит электронные версии произведений, а лишь предоставляет доступ к создаваемому пользователями каталогу ссылок на торрент-файлы, которые содержат только списки хеш-сумм

[Профиль] [ЛС]
Показать сообщения:    
Ответить на тему

Текущее время: Сегодня 13:10

Часовой пояс: GMT + 4



Вы не можете начинать темы
Вы не можете отвечать на сообщения
Вы не можете редактировать свои сообщения
Вы не можете удалять свои сообщения
Вы не можете голосовать в опросах
Вы не можете прикреплять файлы к сообщениям
Вы не можете скачивать файлы