Беспосадочный рейс / Воздушный маршал / Non-Stop (Хауме Кольет-Серра / Jaume Collet-Serra) [2014, США, Франция, Детектив, триллер, боевик, BDRip-AVC] VO (Есарев) + Sub Rus Eng + Original Eng

Ответить на тему
 
Автор Сообщение

user ®

Стаж: 7 лет 7 месяцев

Сообщений: 20008

Пост Пост: #1 от 06-Июн-2014 19:00

[Цитировать]

Беспосадочный рейс / Воздушный маршал / Non-Stop
Страна: США
Жанр: детектив, триллер, боевик
Год выпуска: 2014
Продолжительность: 01:46:37
Перевод: Одноголосый закадровый - Дмитрий Есарев
Cубтитры: русские. английские
Оригинальная аудиодорожка: английский
Режиссер: Хауме Кольет-Серра / Jaume Collet-Serra
В ролях: Лиам Нисон, Джулианна Мур, Скут МакНэйри, Мишель Докери, Нэйт Паркер, Кори Столл, Лупита Нионго, Омар Метуолли, Джейсон Батлер Харнер, Лайнас Роуч и др.
Описание:
Воздушный маршал Билл Маркс, во время перелёта из Нью-Йорка в Лондон, вынужден вступить в противостояние с террористом, после поступления ему на телефон текстовых сообщений с угрозами в адрес пассажиров его самолёта и требованием перевести на банковский счёт 150 миллионов долларов...
Доп. информация:
Перевод Дмитрия Есарева доступен благодаря пользователям "Переулка Переводмана": Skazhutin, Mr. X, Loki1982, Прохожий, будулайроманов, Kruj0k, igrok2012, dikii.
Работа со звуком - Переводман.

Файл:
Качество видео: BDRip-AVC,
Формат видео: MKV
Видео: 1024x424 (2.40:1), 23.976 fps, ~2025 Kbps, 0.195 bit/pixel
Аудио 1: 48 kHz, AC3 Dolby Digital, 3/2 (L,C,R) + L R, LFE ch, ~448.00 kbps avg - Есарев
Аудио 2: 48 kHz, AC3 Dolby Digital, 3/2 (L,C,R) + L R, LFE ch, ~448.00 kbps avg - Eng
Формат субтитров: softsub (SRT)

MediaInfo
Общее
Уникальный идентификатор : 197025547950363088400253326547705483174 (0x9439BD81B9814408BDD951AA36694FA6)
Формат : Matroska
Версия формата : Version 2
Размер файла : 2,18 Гбайт
Продолжительность : 1 ч. 46 м.
Общий поток : 2923 Кбит/сек
Дата кодирования : UTC 2014-06-06 03:49:41
Программа кодирования : mkvmerge v2.9.7 ('Tenderness') built on Jul 1 2009 18:43:35
Библиотека кодирования : libebml v0.7.7 + libmatroska v0.8.1
Видео
Идентификатор : 1
Формат : AVC
Формат/Информация : Advanced Video Codec
Профиль формата : High@L4.1
Параметр CABAC формата : Да
Параметр ReFrames формата : 8 кадров
Идентификатор кодека : V_MPEG4/ISO/AVC
Продолжительность : 1 ч. 46 м.
Битрейт : 2025 Кбит/сек
Ширина : 1024 пикселя
Высота : 424 пикселя
Соотношение сторон : 2,40:1
Режим частоты кадров : Постоянный
Частота кадров : 23,976 кадра/сек
Цветовое пространство : YUV
Субдискретизация насыщенности : 4:2:0
Битовая глубина : 8 бит
Тип развёртки : Прогрессивная
Бит/(Пиксели*Кадры) : 0.195
Размер потока : 1,47 Гбайт (67%)
Библиотека кодирования : x264 core 125 r2200 999b753
Настройки программы : cabac=1 / ref=8 / deblock=1:-2:-2 / analyse=0x3:0x113 / me=umh / subme=9 / psy=1 / psy_rd=1.00:0.00 / mixed_ref=1 / me_range=32 / chroma_me=1 / trellis=2 / 8x8dct=1 / cqm=0 / deadzone=21,11 / fast_pskip=0 / chroma_qp_offset=-2 / threads=6 / lookahead_threads=1 / sliced_threads=0 / nr=0 / decimate=0 / interlaced=0 / bluray_compat=0 / constrained_intra=0 / bframes=8 / b_pyramid=2 / b_adapt=2 / b_bias=0 / direct=3 / weightb=1 / open_gop=0 / weightp=2 / keyint=240 / keyint_min=23 / scenecut=40 / intra_refresh=0 / rc=2pass / mbtree=0 / bitrate=2025 / ratetol=1.0 / qcomp=0.60 / qpmin=0 / qpmax=69 / qpstep=4 / cplxblur=20.0 / qblur=0.5 / ip_ratio=1.40 / pb_ratio=1.30 / aq=1:1.10
Язык : English
Default : Да
Forced : Нет
Аудио #1
Идентификатор : 2
Формат : AC-3
Формат/Информация : Audio Coding 3
Расширение режима : CM (complete main)
Параметр Endianness формата : Big
Идентификатор кодека : A_AC3
Продолжительность : 1 ч. 46 м.
Вид битрейта : Постоянный
Битрейт : 448 Кбит/сек
Каналы : 6 каналов
Расположение каналов : Front: L C R, Side: L R, LFE
Частота : 48,0 КГц
Битовая глубина : 16 бит
Метод сжатия : С потерями
Размер потока : 342 Мбайт (15%)
Заголовок : Есарев
Язык : Russian
Default : Да
Forced : Нет
Аудио #2
Идентификатор : 3
Формат : AC-3
Формат/Информация : Audio Coding 3
Расширение режима : CM (complete main)
Параметр Endianness формата : Big
Идентификатор кодека : A_AC3
Продолжительность : 1 ч. 46 м.
Вид битрейта : Постоянный
Битрейт : 448 Кбит/сек
Каналы : 6 каналов
Расположение каналов : Front: L C R, Side: L R, LFE
Частота : 48,0 КГц
Битовая глубина : 16 бит
Метод сжатия : С потерями
Размер потока : 342 Мбайт (15%)
Заголовок : Оригинал
Язык : English
Default : Нет
Forced : Нет
Текст #1
Идентификатор : 4
Формат : UTF-8
Идентификатор кодека : S_TEXT/UTF8
Идентификатор кодека/Информация : UTF-8 Plain Text
Заголовок : Русские
Язык : Russian
Default : Да
Forced : Нет
Текст #2
Идентификатор : 5
Формат : UTF-8
Идентификатор кодека : S_TEXT/UTF8
Идентификатор кодека/Информация : UTF-8 Plain Text
Заголовок : Английские
Язык : English
Default : Нет
Forced : Нет
Меню
00:00:00.000 : en:01
00:04:24.639 : en:02
00:10:29.045 : en:03
00:14:47.053 : en:04
00:18:51.839 : en:05
00:24:22.127 : en:06
00:29:44.574 : en:07
00:35:48.605 : en:08
00:39:28.491 : en:09
00:45:41.572 : en:10
00:49:03.941 : en:11
00:55:17.731 : en:12
01:01:59.257 : en:13
01:08:42.327 : en:14
01:12:16.999 : en:15
01:18:14.982 : en: 16
01:26:02.032 : en:17
01:30:46.191 : en: 18
01:36:14.727 : en:19
01:40:13.799 : en:20
Скриншот c названием фильма Скриншоты
Скачать

Скачать торрент!

Как скачивать? · Что такое торрент? · Рейтинг и ограничения

Сайт не распространяет и не хранит электронные версии произведений, а лишь предоставляет доступ к создаваемому пользователями каталогу ссылок на торрент-файлы, которые содержат только списки хеш-сумм

[Профиль] [ЛС]
Показать сообщения:    
Ответить на тему

Текущее время: Сегодня 20:36

Часовой пояс: GMT + 4



Вы не можете начинать темы
Вы не можете отвечать на сообщения
Вы не можете редактировать свои сообщения
Вы не можете удалять свои сообщения
Вы не можете голосовать в опросах
Вы не можете прикреплять файлы к сообщениям
Вы не можете скачивать файлы