300 спартанцев: Расцвет империи / 300: Rise of an Empire (Ноам Мурро / Noam Murro) [2014, США, фэнтези, боевик, драма, военный, BDRip] Dub

Ответить на тему
 
Автор Сообщение

user ®

Стаж: 7 лет 7 месяцев

Сообщений: 20008

Пост Пост: #1 от 06-Июн-2014 19:00

[Цитировать]

300 спартанцев: Расцвет империи / 300: Rise of an Empire-«Смерти вопреки» -Страна: США
Студия:Atmosphere Entertainment MM LLC, Cruel & Unusual Films, Hollywood Gang Productions, Legendary Pictures, Warner Bros. Pictures
Жанр: фэнтези, боевик, драма, военный
Год выпуска: 2014
Продолжительность: 01:42:36
Перевод: Профессиональный (дублированный) | iTunes |
Cубтитры: нет
Оригинальная аудиодорожка: нет-Режиссер: Ноам Мурро / Noam Murro
В ролях: Салливан Степлтон, Ева Грин, Лина Хиди, Ханс Мэтисон, Родриго Санторо, Андрей Клод, Дэвид Уэнэм, Джек О`Коннелл, Марк Киллин, Эндрю Тирнан...
Описание: После победы над царем Леонидом персидская армия во главе с Ксерксом движется на юг. На её пути оказывается флот Афин под руководством адмирала Фемистокла. Силы противников не равны, и Фемистокл вынужден вступить в союз с заклятым врагом афинского государства Спартой. Только объединившись у враждующих полисов-государств есть шанс что-то противопоставить могущественному Ксерксу.-Автор рипа: _Flash- -Качество видео: BDRip | 300.Rise.Of.An.Empire.2014.1080p.BDRemux |
Формат видео: AVI
Видео: XviD 73, 720x304, 23,976 fps, 1640 Кbps, 0.312 bit/pixel
Аудио: 48 kHz, AC3 Dolby Digital, 3/2 (L,C,R,l,r) + LFE ch, 384.00 kbps-

Дополнительно о фильме:
Производство, студия дубляжа, прокат:
Знаете ли вы, что...
MediaInfo
Общее
Полное имя : D:\300.Rise.Of.An.Empire.2014.BDRip_By_Flash.avi
Формат : AVI
Формат/Информация : Audio Video Interleave
Размер файла : 1,46 Гбайт
Продолжительность : 1 ч. 42 м.
Общий поток : 2033 Кбит/сек
Видео
Идентификатор : 0
Формат : MPEG-4 Visual
Профиль формата : Advanced Simple@L5
Параметр BVOP формата : 1
Параметр QPel формата : Нет
Параметр GMC формата : Без точки перехода
Параметр матрицы формата : Выборочная
Идентификатор кодека : XVID
Идентификатор кодека/Подсказка : XviD
Продолжительность : 1 ч. 42 м.
Битрейт : 1640 Кбит/сек
Ширина : 720 пикселей
Высота : 304 пикселя
Соотношение сторон : 2,35:1
Частота кадров : 23,976 кадра/сек
Цветовое пространство : YUV
Субдискретизация насыщенности : 4:2:0
Битовая глубина : 8 бит
Тип развёртки : Прогрессивная
Метод сжатия : С потерями
Бит/(Пиксели*Кадры) : 0.312
Размер потока : 1,18 Гбайт (81%)
Библиотека кодирования : XviD 73
Аудио
Идентификатор : 1
Формат : AC-3
Формат/Информация : Audio Coding 3
Расширение режима : CM (complete main)
Параметр Endianness формата : Big
Идентификатор кодека : 2000
Продолжительность : 1 ч. 42 м.
Вид битрейта : Постоянный
Битрейт : 384 Кбит/сек
Каналы : 6 каналов
Расположение каналов : Front: L C R, Side: L R, LFE
Частота : 48,0 КГц
Битовая глубина : 16 бит
Метод сжатия : С потерями
Размер потока : 282 Мбайт (19%)
Выравнивание : Разделение по промежуткам
Продолжительность промежутка : 42 мс. (1,00 видеокадр)
Время предзагрузки промежутка : 500 мс.
Скриншот c названием фильма Скриншоты Сравнение
http://screenshotcomparison.com/comparison/77793
релиз конкурента - [url=http://***/forum/viewtopic.php?t=4753855]http://***/forum/viewtopic.php?t=4753855[/url]
Скачать

Скачать торрент!

Как скачивать? · Что такое торрент? · Рейтинг и ограничения

Сайт не распространяет и не хранит электронные версии произведений, а лишь предоставляет доступ к создаваемому пользователями каталогу ссылок на торрент-файлы, которые содержат только списки хеш-сумм

[Профиль] [ЛС]
Показать сообщения:    
Ответить на тему

Текущее время: Сегодня 00:26

Часовой пояс: GMT + 4



Вы не можете начинать темы
Вы не можете отвечать на сообщения
Вы не можете редактировать свои сообщения
Вы не можете удалять свои сообщения
Вы не можете голосовать в опросах
Вы не можете прикреплять файлы к сообщениям
Вы не можете скачивать файлы