Один дома 3 / Home Alone 3 (Раджа Госнелл / Raja Gosnell) [1997, США, комедия, семейный, HDTV 1080i] MVO

Ответить на тему
 
Автор Сообщение

user ®

Стаж: 7 лет 7 месяцев

Сообщений: 20008

Пост Пост: #1 от 06-Июн-2014 15:50

[Цитировать]

Один дома 3 / Home Alone 3
Страна: США
Жанр: комедия, семейный
Год выпуска: 1997
Продолжительность: 01:33:10
Перевод: Профессиональный (многоголосый закадровый)
Cубтитры: нет
Оригинальная аудиодорожка: нет
Режиссер: Раджа Госнелл / Raja Gosnell
В ролях: Алекс Д. Линц, Олек Крупа, Риа Килстедт, Ленни фон Долен, Дэвид Торнтон, Хэвиленд Моррис, Кевин Килнер, Мэриэн Селдес, Сет Смит, Скарлетт Йоханссон
Описание: Трое мужчин и женщина купили украденную для них новейшую микросхему, способную нейтрализовать всю систему противокосмической обороны. Положили ее в игрушечную машину, ее — в пакет с надписью «Parisian». В аэропорту обнаружилось, что в пакете игрушки нет, а вокруг ходят люди точно с такими же пакетами. Стали искать. В результате поисков пришлось лететь за пакетом в Чикаго. Самые догадливые зрители уже, наверное, догадались, в чей дом привезла пожилая дама пакет с игрушкой. Ну, конечно же, туда, где живет маленький милый мальчик. Все знакомо? Да, только на этот раз вместо незадачливых бедолаг-неудачников против мальчугана, заболевшего скарлатиной и оставшегося дома, выступают настоящие профессионалы, люди очень и очень опасные. А другие серьезные люди, у которых микросхема пропала, тоже сидеть без дела не намерены.
Сэмпл: http://yadi.sk/d/WEkWUNfVSNFWh
Тип релиза: HDTV 1080i
Контейнер: TS
Видео: AVC, 1920x1080 (16/9), 25.000 fps, 11.7 Mbps (0.226 bit/pixel)
Аудио: MP2, 48.0 KHz, 2 ch, 192 Kbps, CBR (Russian)
MediaInfo
Общее
Идентификатор : 3 (0x3)
Полное имя : K:\Один дома 3.ts
Формат : MPEG-TS
Размер файла : 8,33 Гбайт
Продолжительность : 1 ч. 33 м.
Режим общего битрейта : Переменный
Общий поток : 12,8 Мбит/сек
Видео
Идентификатор : 2141 (0x85D)
Идентификатор меню : 21004 (0x520C)
Формат : AVC
Формат/Информация : Advanced Video Codec
Профиль формата : Main@L4.0
Параметр CABAC формата : Да
Параметр ReFrames формата : 3 кадра
Идентификатор кодека : 27
Продолжительность : 1 ч. 33 м.
Битрейт : 12,0 Мбит/сек
Ширина : 1920 пикселей
Высота : 1080 пикселей
Соотношение сторон : 16:9
Частота кадров : 25,000 кадров/сек
Стандарт вещания : Component
Цветовое пространство : YUV
Субдискретизация насыщенности : 4:2:0
Битовая глубина : 8 бит
Тип развёртки : Чересстрочная
Бит/(Пиксели*Кадры) : 0.231
Размер потока : 7,79 Гбайт (94%)
Основные цвета : BT.709
Характеристики трансфера : BT.709
Коэффициенты матрицы : BT.709
Аудио
Идентификатор : 2142 (0x85E)
Идентификатор меню : 21004 (0x520C)
Формат : MPEG Audio
Версия формата : Version 1
Профиль формата : Layer 2
Идентификатор кодека : 4
Продолжительность : 1 ч. 33 м.
Вид битрейта : Постоянный
Битрейт : 192 Кбит/сек
Каналы : 2 канала
Частота : 48,0 КГц
Метод сжатия : С потерями
Задержка видео : -18 мс.
Размер потока : 128 Мбайт (1%)
Язык : Russian
Скриншоты
Скачать

Скачать торрент!

Как скачивать? · Что такое торрент? · Рейтинг и ограничения

Сайт не распространяет и не хранит электронные версии произведений, а лишь предоставляет доступ к создаваемому пользователями каталогу ссылок на торрент-файлы, которые содержат только списки хеш-сумм

[Профиль] [ЛС]
Показать сообщения:    
Ответить на тему

Текущее время: Сегодня 05:52

Часовой пояс: GMT + 4



Вы не можете начинать темы
Вы не можете отвечать на сообщения
Вы не можете редактировать свои сообщения
Вы не можете удалять свои сообщения
Вы не можете голосовать в опросах
Вы не можете прикреплять файлы к сообщениям
Вы не можете скачивать файлы