Один дома 4 / Home Alone 4 (Род Дэниел / Rod Daniel) [2002, США, комедия, семейный, HDTV 1080i] MVO

Ответить на тему
 
Автор Сообщение

user ®

Стаж: 7 лет 7 месяцев

Сообщений: 20008

Пост Пост: #1 от 06-Июн-2014 15:50

[Цитировать]

Один дома 4 / Home Alone 4
Страна: США
Жанр: комедия, семейный
Год выпуска: 2002
Продолжительность: 01:20:13
Перевод: Профессиональный (многоголосый закадровый) 1 канал
Cубтитры: нет
Оригинальная аудиодорожка: нет
Режиссер: Род Дэниел / Rod Daniel
В ролях: Френч Стюарт, Эрик Авари, Барбара Бэбкок, Джейсон Бех, Клер Кэри, Джоэнна Гоуинг, Мисси Пайл, Гидеон Джейкобс, Челси Руссо, Майк Вейнберг
Описание: Мечта любого маленького хулигана — это когда родителей нет дома и в твоем распоряжении целый дом! Для Кевина МакКалистера, нашего старого знакомого, эти мечты сбываются.
На этот раз он готовится встретить Рождество, ожидая родителей и гостей в огромном супердоме, напичканном самыми невероятными техническими устройствами. И поверьте, праздник будет потрясающим! Особенно для горе-бандитов, задумавших проникнуть в дом. Ведь они еще не знают, с кем им придется иметь дело…
Сэмпл: http://yadi.sk/d/2FuWT12VSNJJv
Тип релиза: HDTV 1080i
Контейнер: TS
Видео: AVC, 1920x1080 (16/9), 25.000 fps, 14.5 Mbps (0.280 bit/pixel)
Аудио: MP2, 48.0 KHz, 2 ch, 192 Kbps, CBR (Russian)
MediaInfo
Общее
Идентификатор : 3 (0x3)
Полное имя : K:\Один дома 4.ts
Формат : MPEG-TS
Размер файла : 8,87 Гбайт
Продолжительность : 1 ч. 20 м.
Режим общего битрейта : Переменный
Общий поток : 15,8 Мбит/сек
Видео
Идентификатор : 2141 (0x85D)
Идентификатор меню : 21004 (0x520C)
Формат : AVC
Формат/Информация : Advanced Video Codec
Профиль формата : Main@L4.0
Параметр CABAC формата : Да
Параметр ReFrames формата : 3 кадра
Идентификатор кодека : 27
Продолжительность : 1 ч. 20 м.
Битрейт : 14,9 Мбит/сек
Ширина : 1920 пикселей
Высота : 1080 пикселей
Соотношение сторон : 16:9
Частота кадров : 25,000 кадров/сек
Стандарт вещания : Component
Цветовое пространство : YUV
Субдискретизация насыщенности : 4:2:0
Битовая глубина : 8 бит
Тип развёртки : Чересстрочная
Порядок развёртки : Верхнее поле первое
Бит/(Пиксели*Кадры) : 0.286
Размер потока : 8,32 Гбайт (94%)
Основные цвета : BT.709
Характеристики трансфера : BT.709
Коэффициенты матрицы : BT.709
Аудио
Идентификатор : 2142 (0x85E)
Идентификатор меню : 21004 (0x520C)
Формат : MPEG Audio
Версия формата : Version 1
Профиль формата : Layer 2
Идентификатор кодека : 4
Продолжительность : 1 ч. 20 м.
Вид битрейта : Постоянный
Битрейт : 192 Кбит/сек
Каналы : 2 канала
Частота : 48,0 КГц
Метод сжатия : С потерями
Задержка видео : 88 мс.
Размер потока : 110 Мбайт (1%)
Язык : Russian
Скриншоты
Скачать

Скачать торрент!

Как скачивать? · Что такое торрент? · Рейтинг и ограничения

Сайт не распространяет и не хранит электронные версии произведений, а лишь предоставляет доступ к создаваемому пользователями каталогу ссылок на торрент-файлы, которые содержат только списки хеш-сумм

[Профиль] [ЛС]
Показать сообщения:    
Ответить на тему

Текущее время: Сегодня 22:34

Часовой пояс: GMT + 4



Вы не можете начинать темы
Вы не можете отвечать на сообщения
Вы не можете редактировать свои сообщения
Вы не можете удалять свои сообщения
Вы не можете голосовать в опросах
Вы не можете прикреплять файлы к сообщениям
Вы не можете скачивать файлы