День Святого Валентина / Valentine (Джэми Блэнкс / Jamie Blanks) [2001, США, триллер, ужастик, WEB-DL 720p] Dub + Original Eng + Sub (Rus, Eng)

Ответить на тему
 
Автор Сообщение

user ®

Стаж: 7 лет 7 месяцев

Сообщений: 20008

Пост Пост: #1 от 06-Июн-2014 10:45

[Цитировать]

День Святого Валентина / Valentine- Страна: США
Жанр: триллер, ужастик
Год выпуска: 2001
Продолжительность: 01:36:03
Перевод: Профессиональный (дублированный)
Cубтитры: русские, английские
Оригинальная аудиодорожка: английская-Режиссер: Джэми Блэнкс / Jamie Blanks
В ролях: Дениз Ричардс, Дэвид Бореаназ, Марли Шелтон, Джессика Кэпшоу, Кэтрин Хайгл, Хеди Барресс, Джессика Коффил, Дэниэл Косгров, Джонни Витуорт-Описание: Помнишь паренька, над которым все издевались в День Святого Валентина? Он тебя не забыл. Месть сладка, как конфетка ко Дню всех влюбленных. Во всяком случае, так думает убийца в маске Купидона.
Давным-давно, в школьной юности, компания красивых подружек находила забавным поиздеваться над прыщавым неудачником. Прошли годы, он вырос. И ничего не забыл.-
-Качество видео: WEB-DL 720p
Формат видео: MKV
Видео: AVC, 1280x528, 3950 Kbps, 23.976 fps
Аудио 1: AC3, 48000 Hz, 384 Kbps, 5.1 channels - RUS
Аудио 2: AC3, 48000 Hz, 384 Kbps, 5.1 channels - ENG
Субтитры: SRT - русские, английские-

Скриншоты Резервные скриншоты MediaInfo
Format : Matroska
Format version : Version 4 / Version 2
File size : 3.23 GiB
Duration : 1h 36mn
Overall bit rate : 4 814 Kbps
Movie name : День Святого Валентина / Valentine (2001) WEB-DL 720p RG Torrents.ru
Encoded date : UTC 2014-06-05 17:23:41
Writing application : mkvmerge v6.9.1 ('Blue Panther') 32bit built on Apr 18 2014 18:15:44
Writing library : libebml v1.3.0 + libmatroska v1.4.1
Attachment : Yes
Video
ID : 1
Format : AVC
Format/Info : Advanced Video Codec
Format profile : Main@L3.1
Format settings, CABAC : No
Format settings, ReFrames : 2 frames
Format settings, GOP : N=1
Codec ID : V_MPEG4/ISO/AVC
Duration : 1h 36mn
Bit rate : 3 950 Kbps
Width : 1 280 pixels
Height : 528 pixels
Display aspect ratio : 2.40:1
Frame rate mode : Constant
Frame rate : 23.976 fps
Color space : YUV
Chroma subsampling : 4:2:0
Bit depth : 8 bits
Scan type : Progressive
Bits/(Pixel*Frame) : 0.244
Stream size : 2.65 GiB (82%)
Title : RG Torrents.ru
Language : English
Default : Yes
Forced : No
Color primaries : BT.709
Transfer characteristics : BT.709
Matrix coefficients : BT.709
Audio #1
ID : 2
Format : AC-3
Format/Info : Audio Coding 3
Mode extension : CM (complete main)
Format settings, Endianness : Big
Codec ID : A_AC3
Duration : 1h 36mn
Bit rate mode : Constant
Bit rate : 384 Kbps
Channel(s) : 6 channels
Channel positions : Front: L C R, Side: L R, LFE
Sampling rate : 48.0 KHz
Bit depth : 16 bits
Compression mode : Lossy
Stream size : 264 MiB (8%)
Language : Russian
Default : Yes
Forced : No
Audio #2
ID : 3
Format : AC-3
Format/Info : Audio Coding 3
Mode extension : CM (complete main)
Format settings, Endianness : Big
Codec ID : A_AC3
Duration : 1h 36mn
Bit rate mode : Constant
Bit rate : 384 Kbps
Channel(s) : 6 channels
Channel positions : Front: L C R, Side: L R, LFE
Sampling rate : 48.0 KHz
Bit depth : 16 bits
Compression mode : Lossy
Stream size : 264 MiB (8%)
Language : English
Default : No
Forced : No
Text #1
ID : 4
Format : UTF-8
Codec ID : S_TEXT/UTF8
Codec ID/Info : UTF-8 Plain Text
Language : Russian
Default : No
Forced : No
Text #2
ID : 5
Format : UTF-8
Codec ID : S_TEXT/UTF8
Codec ID/Info : UTF-8 Plain Text
Language : English
Default : No
Forced : No
Menu
00:00:00.000 : en:Chapter 1.
00:10:00.000 : en:Chapter 2.
00:20:00.000 : en:Chapter 3.
00:30:00.000 : en:Chapter 4.
00:40:00.000 : en:Chapter 5.
00:50:00.000 : en:Chapter 6.
01:00:00.000 : en:Chapter 7.
01:10:00.000 : en:Chapter 8.
01:20:00.000 : en:Chapter 9.
01:30:00.000 : en:Chapter 10.
Скачать

Скачать торрент!

Как скачивать? · Что такое торрент? · Рейтинг и ограничения

Сайт не распространяет и не хранит электронные версии произведений, а лишь предоставляет доступ к создаваемому пользователями каталогу ссылок на торрент-файлы, которые содержат только списки хеш-сумм

[Профиль] [ЛС]
Показать сообщения:    
Ответить на тему

Текущее время: Сегодня 10:04

Часовой пояс: GMT + 4



Вы не можете начинать темы
Вы не можете отвечать на сообщения
Вы не можете редактировать свои сообщения
Вы не можете удалять свои сообщения
Вы не можете голосовать в опросах
Вы не можете прикреплять файлы к сообщениям
Вы не можете скачивать файлы