Вор / Thief (Майкл Манн / Michael Mann) [1981, США, боевик, триллер, драма, криминал, BDRemux 1080p] DVO + 2х AVO (Гаврилов, Михалёв) + Sub Rus, Eng + Original Eng

Ответить на тему
 
Автор Сообщение

user ®

Стаж: 7 лет 7 месяцев

Сообщений: 20008

Пост Пост: #1 от 06-Июн-2014 10:45

[Цитировать]

Вор / Thief- Страна: США
Жанр: боевик, триллер, драма, криминал
Год выпуска: 1981
Продолжительность: 02:04:41-Перевод 1: Профессиональный (двухголосый закадровый)
Перевод 2: Авторский (одноголосый закадровый) Андрей Гаврилов
Перевод 3: Авторский (одноголосый закадровый) Алексей Михалёв
Cубтитры: русские форсированные (на непереведенный голосом фрагмент), русские (полные), английские
Оригинальная аудиодорожка: английский-Режиссер: Майкл Манн / Michael Mann
В ролях: Джеймс Каан, Тьюзди Уэлд, Уилли Нельсон, Джеймс Белуши, Роберт Проски, Том Сигнорелли, Деннис Фарина, Ник Никеас, В.Р. Браун, Норм Тобин-Описание: Фрэнк — эксперт по вскрытию сейфов, профессионал высшей пробы, и работы для него всегда хватает. Но он уже побывал за решеткой, и возвращаться туда не собирается. Нужен всего один, но верный взлом.
И тут дразнящая мечта о будущем заставляет его потерять осторожность: поддавшись искушению, матерый волк-одиночка соглашается поработать на крупного мафиози! Капкан захлопнулся, разовых контрактов с мафией не бывает. Лучший друг Фрэнка убит, любимая женщина — в руках бандитов, а сам он становится их собственностью…--Семпл: -Тип релиза: BDRemux 1080p
Контейнер: MKV
Видео: 1920x1080p (16:9), 23.976 fps, AVC, 32488 kbps
Аудио 1: Russian / DTS-HD Master Audio / 5.1 / 48 kHz / 3401 kbps / 24-bit (DTS Core: 5.1 / 48 kHz / 1509 kbps / 24-bit) - Двухголосый закадровый
Аудио 2: Russian / Dolby Digital Audio / 2.0 / 48 kHz / 192 kbps - Двухголосый закадровый | Mono
Аудио 3: Russian / Dolby Digital Audio / 2.0 / 48 kHz / 192 kbps - Одноголосый закадровый | Андрей Гаврилов
Аудио 4: Russian / Dolby Digital Audio / 2.0 / 48 kHz / 192 kbps - Одноголосый закадровый | Алексей Михалёв
Аудио 5: English / DTS-HD Master Audio / 5.1 / 48 kHz / 3314 kbps / 24-bit (DTS Core: 5.1 / 48 kHz / 1509 kbps / 24-bit) - Original
Аудио 6: English / Dolby Digital Audio / 1.0 / 48 kHz / 192 kbps - Commentary
MediaInfo
GeneralUnique ID : 212426365415262357088774750554835807993 (0x9FCFD46EA0F20276BBFCA70778066EF9)Complete name : Thief.1981.BDRemux.1080p.rutracker-xfiles.mkvFormat : MatroskaFormat version : Version 4 / Version 2File size : 34.6 GiBDuration : 2h 4mnOverall bit rate mode : VariableOverall bit rate : 39.7 MbpsMovie name : Thief.1981.BDRemux.1080p.rutracker-xfilesEncoded date : UTC 2014-06-05 17:49:13Writing application : mkvmerge v6.9.1 ('Blue Panther') 64bit built on Apr 18 2014 18:23:38Writing library : libebml v1.3.0 + libmatroska v1.4.1Attachment : Yes
VideoID : 1Format : AVCFormat/Info : Advanced Video CodecFormat profile : High@L4.1Format settings, CABAC : YesFormat settings, ReFrames : 4 framesCodec ID : V_MPEG4/ISO/AVCDuration : 2h 4mnBit rate mode : VariableMaximum bit rate : 37.0 MbpsWidth : 1 920 pixelsHeight : 1 080 pixelsDisplay aspect ratio : 16:9Frame rate mode : ConstantFrame rate : 23.976 fpsColor space : YUVChroma subsampling : 4:2:0Bit depth : 8 bitsScan type : ProgressiveDefault : YesForced : No
Audio #1ID : 2Format : DTSFormat/Info : Digital Theater SystemsFormat profile : MA / CoreMode : 16Format settings, Endianness : BigCodec ID : A_DTSDuration : 2h 4mnBit rate mode : VariableBit rate : Unknown / 1 509 KbpsChannel(s) : 6 channelsChannel positions : Front: L C R, Side: L R, LFESampling rate : 48.0 KHzBit depth : 24 bitsCompression mode : Lossless / LossyTitle : Двухголосый закадровый | 5.1 chLanguage : RussianDefault : YesForced : No
Audio #2ID : 3Format : AC-3Format/Info : Audio Coding 3Mode extension : CM (complete main)Format settings, Endianness : BigCodec ID : A_AC3Duration : 2h 4mnBit rate mode : ConstantBit rate : 192 KbpsChannel(s) : 2 channelsChannel positions : Front: L RSampling rate : 48.0 KHzBit depth : 16 bitsCompression mode : LossyStream size : 171 MiB (0%)Title : Двухголосый закадровый | MonoLanguage : RussianDefault : NoForced : No
Audio #3ID : 4Format : AC-3Format/Info : Audio Coding 3Mode extension : CM (complete main)Format settings, Endianness : BigCodec ID : A_AC3Duration : 2h 4mnBit rate mode : ConstantBit rate : 192 KbpsChannel(s) : 2 channelsChannel positions : Front: L RSampling rate : 48.0 KHzBit depth : 16 bitsCompression mode : LossyStream size : 171 MiB (0%)Title : Одноголосый закадровый | Андрей ГавриловLanguage : RussianDefault : NoForced : No
Audio #4ID : 5Format : AC-3Format/Info : Audio Coding 3Mode extension : CM (complete main)Format settings, Endianness : BigCodec ID : A_AC3Duration : 2h 4mnBit rate mode : ConstantBit rate : 192 KbpsChannel(s) : 2 channelsChannel positions : Front: L RSampling rate : 48.0 KHzBit depth : 16 bitsCompression mode : LossyStream size : 171 MiB (0%)Title : Одноголосый закадровый | Алексей МихалёвLanguage : RussianDefault : NoForced : No
Audio #5ID : 6Format : DTSFormat/Info : Digital Theater SystemsFormat profile : MA / CoreMode : 16Format settings, Endianness : BigCodec ID : A_DTSDuration : 2h 4mnBit rate mode : VariableBit rate : Unknown / 1 509 KbpsChannel(s) : 6 channelsChannel positions : Front: L C R, Side: L R, LFESampling rate : 48.0 KHzBit depth : 24 bitsCompression mode : Lossless / LossyTitle : OriginalLanguage : EnglishDefault : NoForced : No
Audio #6ID : 7Format : AC-3Format/Info : Audio Coding 3Mode extension : CM (complete main)Format settings, Endianness : BigCodec ID : A_AC3Duration : 2h 4mnBit rate mode : ConstantBit rate : 192 KbpsChannel(s) : 1 channelChannel positions : Front: CSampling rate : 48.0 KHzBit depth : 16 bitsCompression mode : LossyStream size : 171 MiB (0%)Title : CommentaryLanguage : EnglishDefault : NoForced : No
Text #1ID : 8Format : UTF-8Codec ID : S_TEXT/UTF8Codec ID/Info : UTF-8 Plain TextLanguage : RussianDefault : YesForced : No
Text #2ID : 9Format : UTF-8Codec ID : S_TEXT/UTF8Codec ID/Info : UTF-8 Plain TextLanguage : RussianDefault : NoForced : No
Text #3ID : 10Format : UTF-8Codec ID : S_TEXT/UTF8Codec ID/Info : UTF-8 Plain TextLanguage : EnglishDefault : NoForced : No
Menu00:00:00.000 : en:High-line pros00:11:54.422 : en:Rocket Used Cars00:13:08.412 : en:Moving merchandise00:15:16.707 : en:Letter from inside00:16:51.010 : en:Sidewalk splatter00:18:10.422 : en:"We have this problem"00:22:22.799 : en:Okla00:25:23.605 : en:The bank00:30:10.266 : en:"I'm a thief"00:35:08.773 : en:Something special00:45:31.061 : en:Planning the score00:47:29.555 : en:New home00:47:55.247 : en:"I need a favor"00:51:55.612 : en:Habeas corpus00:53:40.175 : en:Fifth alarm00:55:53.808 : en:A dead place00:58:56.699 : en:Bumps, humps, and bugs01:02:42.592 : en:"State your model"01:06:47.962 : en:Code blue01:09:28.706 : en:David01:11:43.549 : en:"We are on"01:14:32.551 : en:Taking a trimming01:18:25.951 : en:Bait and switch01:21:43.857 : en:Burning bar01:33:31.939 : en:Sun and sand01:36:58.687 : en:The way things are done01:40:04.581 : en:Ambushed01:42:45.075 : en:"I run you"01:44:57.082 : en:No more dreams01:50:04.472 : en:Destroying everything01:53:42.690 : en:A free man
Скриншоты - Дорожки #1,2 с одинаковым переводом. Дорожка #2 - моно, взята с исходного DVD и синхронизирована, в дорожке #1 использованы выделенные голоса из второй.
- Звуковая дорожка #1 изготовлена путем наложения выделенных голосов на центральный канал декодированной оригинальной DTS-HD MA дорожки.
- Исходные звуковые дорожки взяты с DVD издания "Н-Кино" (Серия "Vintage").
- На непереведенный голосом фрагмент изготовлены форсированные субтитры.
- Работа со звуком - xfiles.
Скачать

Скачать торрент!

Как скачивать? · Что такое торрент? · Рейтинг и ограничения

Сайт не распространяет и не хранит электронные версии произведений, а лишь предоставляет доступ к создаваемому пользователями каталогу ссылок на торрент-файлы, которые содержат только списки хеш-сумм

[Профиль] [ЛС]
Показать сообщения:    
Ответить на тему

Текущее время: Сегодня 02:17

Часовой пояс: GMT + 4



Вы не можете начинать темы
Вы не можете отвечать на сообщения
Вы не можете редактировать свои сообщения
Вы не можете удалять свои сообщения
Вы не можете голосовать в опросах
Вы не можете прикреплять файлы к сообщениям
Вы не можете скачивать файлы