Деньги решают все / Money Talks (Бретт Рэтнер / Brett Ratner) [1997, США, комедия, боевик, WEB-DL 720p] 2хMVO + DVO + 3хAVO + Sub Eng + Original Eng

Ответить на тему
 
Автор Сообщение

user ®

Стаж: 7 лет 7 месяцев

Сообщений: 20008

Пост Пост: #1 от 05-Июн-2014 12:45

[Цитировать]

Деньги решают все / Money Talks
Страна: США
Студия: New Line Cinema
Жанр: комедия, боевик
Год выпуска: 1997
Продолжительность: 01:35:43
Перевод: Профессиональный (многоголосый закадровый) R5
Перевод 2: Профессиональный (многоголосый закадровый) Россия-ТВ3
Перевод 3: Профессиональный (двухголосый закадровый)
Перевод 4: Авторский (одноголосый закадровый) Ю.Живов
Перевод 5: Авторский (одноголосый закадровый) А.Гаврилов
Перевод 6: Авторский (одноголосый закадровый) В.Горчаков
Cубтитры: английские
Оригинальная аудиодорожка: английский
Режиссер: Бретт Рэтнер / Brett Ratner
В ролях: Крис Такер, Чарли Шин, Хэзер Локлир, Элиз Нил, Пол Сорвино, Дэвид Ли МакЛэйн, Виктор Феррерира, Гари Бриггс, Ларри Хэнкин, Нэйтан Андерсон
Описание: Криминальный телерепортер Джеймс Рассел становится виновником того, что мелкого чернокожего спекулянта Фрэнка Хэтчета сначала арестовывают, а потом обвиняют в убийстве полицейских при побеге из тюремного автобуса. Скрывающийся от полиции Фрэнк вызывает репортера на встречу и требует от него помощи. Джеймс соглашается при условии, что беглец даст ему эксклюзивное сенсационное интервью... Дальше все как в кино: погони, перестрелки и хэппи энд...
Sample
Тип релиза: WEB-DL 720p
Контейнер: MKV
Видео: MPEG4 AVC Video, H264, 2.40:1, 16:9, 1280x536, 23,976 fps, 4030 kbps
Аудио: Russian (AC3, 6 ch, 448 kbps, 16 bits, 48.0 KHz) - R5
Аудио 2: Russian (AC3, 2 ch, 192 kbps, 16 bits, 48.0 KHz) - Россия-ТВ3
Аудио 3: Russian (AC3, 2 ch, 192 kbps, 16 bits, 48.0 KHz) - DVO
Аудио 4: Russian (AC3, 6 ch, 448 kbps, 16 bits, 48.0 KHz) - Живов
Аудио 5: Russian (AC3, 6 ch, 384 kbps, 16 bits, 48.0 KHz) - Гаврилов
Аудио 6: Russian (AC3, 6 ch, 384 kbps, 16 bits, 48.0 KHz) - Горчаков
Аудио 7: English (AC3, 6 ch, 384 kbps, 16 bits, 48.0 KHz) - оригинал
Формат субтитров: softsub (SRT)
MediaInfo
General
Unique ID : 213216517664786168833186857354607921562 (0xA06801F2213D44DCB816D4993C77099A)
Complete name : E:\1\Money.Talks.1997.720p.WEB-DL.mkv
Format : Matroska
Format version : Version 4 / Version 2
File size : 4.41 GiB
Duration : 1h 35mn
Overall bit rate : 6 594 Kbps
Encoded date : UTC 2014-05-30 18:56:13
Writing application : mkvmerge v6.1.0 ('Old Devil') built on Mar 2 2013 14:32:37
Writing library : libebml v1.3.0 + libmatroska v1.4.0
Video
ID : 1
Format : AVC
Format/Info : Advanced Video Codec
Format profile : Main@L3.1
Format settings, CABAC : No
Format settings, ReFrames : 2 frames
Codec ID : V_MPEG4/ISO/AVC
Duration : 1h 35mn
Bit rate : 4 030 Kbps
Width : 1 280 pixels
Height : 536 pixels
Display aspect ratio : 2.40:1
Frame rate mode : Constant
Frame rate : 23.976 fps
Color space : YUV
Chroma subsampling : 4:2:0
Bit depth : 8 bits
Scan type : Progressive
Bits/(Pixel*Frame) : 0.245
Stream size : 2.69 GiB (61%)
Language : English
Default : Yes
Forced : No
Color primaries : BT.709
Transfer characteristics : BT.709
Matrix coefficients : BT.709
Audio #1
ID : 2
Format : AC-3
Format/Info : Audio Coding 3
Mode extension : CM (complete main)
Format settings, Endianness : Big
Codec ID : A_AC3
Duration : 1h 35mn
Bit rate mode : Constant
Bit rate : 448 Kbps
Channel count : 6 channels
Channel positions : Front: L C R, Side: L R, LFE
Sampling rate : 48.0 KHz
Bit depth : 16 bits
Compression mode : Lossy
Stream size : 307 MiB (7%)
Title : R5
Language : Russian
Default : Yes
Forced : Yes
Audio #2
ID : 3
Format : AC-3
Format/Info : Audio Coding 3
Mode extension : CM (complete main)
Format settings, Endianness : Big
Codec ID : A_AC3
Duration : 1h 35mn
Bit rate mode : Constant
Bit rate : 192 Kbps
Channel count : 2 channels
Channel positions : Front: L R
Sampling rate : 48.0 KHz
Bit depth : 16 bits
Compression mode : Lossy
Stream size : 131 MiB (3%)
Title : Россия-ТВ3
Language : Russian
Default : No
Forced : No
Audio #3
ID : 4
Format : AC-3
Format/Info : Audio Coding 3
Mode extension : CM (complete main)
Format settings, Endianness : Big
Codec ID : A_AC3
Duration : 1h 35mn
Bit rate mode : Constant
Bit rate : 192 Kbps
Channel count : 2 channels
Channel positions : Front: L R
Sampling rate : 48.0 KHz
Bit depth : 16 bits
Compression mode : Lossy
Stream size : 131 MiB (3%)
Title : DVO
Language : Russian
Default : No
Forced : No
Audio #4
ID : 5
Format : AC-3
Format/Info : Audio Coding 3
Mode extension : CM (complete main)
Format settings, Endianness : Big
Codec ID : A_AC3
Duration : 1h 35mn
Bit rate mode : Constant
Bit rate : 448 Kbps
Channel count : 6 channels
Channel positions : Front: L C R, Side: L R, LFE
Sampling rate : 48.0 KHz
Bit depth : 16 bits
Compression mode : Lossy
Stream size : 307 MiB (7%)
Title : Живов
Language : Russian
Default : No
Forced : No
Audio #5
ID : 6
Format : AC-3
Format/Info : Audio Coding 3
Mode extension : CM (complete main)
Format settings, Endianness : Big
Codec ID : A_AC3
Duration : 1h 35mn
Bit rate mode : Constant
Bit rate : 384 Kbps
Channel count : 6 channels
Channel positions : Front: L C R, Side: L R, LFE
Sampling rate : 48.0 KHz
Bit depth : 16 bits
Compression mode : Lossy
Stream size : 263 MiB (6%)
Title : Гаврилов
Language : Russian
Default : No
Forced : No
Audio #6
ID : 7
Format : AC-3
Format/Info : Audio Coding 3
Mode extension : CM (complete main)
Format settings, Endianness : Big
Codec ID : A_AC3
Duration : 1h 35mn
Bit rate mode : Constant
Bit rate : 384 Kbps
Channel count : 6 channels
Channel positions : Front: L C R, Side: L R, LFE
Sampling rate : 48.0 KHz
Bit depth : 16 bits
Compression mode : Lossy
Stream size : 263 MiB (6%)
Title : Горчаков
Language : Russian
Default : No
Forced : No
Audio #7
ID : 8
Format : AC-3
Format/Info : Audio Coding 3
Mode extension : CM (complete main)
Format settings, Endianness : Big
Codec ID : A_AC3
Duration : 1h 35mn
Bit rate mode : Constant
Bit rate : 384 Kbps
Channel count : 6 channels
Channel positions : Front: L C R, Side: L R, LFE
Sampling rate : 48.0 KHz
Bit depth : 16 bits
Compression mode : Lossy
Stream size : 263 MiB (6%)
Language : English
Default : No
Forced : No
Text
ID : 9
Format : UTF-8
Codec ID : S_TEXT/UTF8
Codec ID/Info : UTF-8 Plain Text
Language : English
Default : No
Forced : No
Menu
00:00:00.000 : en:Main Title
00:02:45.000 : en:Busted at the Car Wash
00:07:16.000 : en:Behind Bars
00:11:01.000 : en:The Escape
00:16:33.000 : en:On The Run
00:22:11.000 : en:Teaming Up
00:27:59.000 : en:"Ebony Man of the Month"
00:29:36.000 : en:Vic Damone
00:34:19.000 : en:Sweeps Week
00:36:56.000 : en:House Call
00:41:43.000 : en:A Night on the Town
00:47:07.000 : en:Paying Aaron a Visit
00:53:05.000 : en:Breakfast with the In-Laws
00:57:46.000 : en:Auto Auction
01:03:17.000 : en:Test Drive
01:07:41.000 : en:"It can't get no righter"
01:12:24.000 : en:Set Up at the Coliseum
01:15:15.000 : en:"Where are the diamonds?"
01:16:56.000 : en:The Chase is On
01:20:54.000 : en:Light on the Subject
01:23:27.000 : en:Fire in the Press Box
01:26:07.000 : en:"Come and get it!"
01:28:28.000 : en:"Peace out"
01:31:04.000 : en:End Credits
Скриншоты
Скачать

Скачать торрент!

Как скачивать? · Что такое торрент? · Рейтинг и ограничения

Сайт не распространяет и не хранит электронные версии произведений, а лишь предоставляет доступ к создаваемому пользователями каталогу ссылок на торрент-файлы, которые содержат только списки хеш-сумм

[Профиль] [ЛС]
Показать сообщения:    
Ответить на тему

Текущее время: Сегодня 07:06

Часовой пояс: GMT + 4



Вы не можете начинать темы
Вы не можете отвечать на сообщения
Вы не можете редактировать свои сообщения
Вы не можете удалять свои сообщения
Вы не можете голосовать в опросах
Вы не можете прикреплять файлы к сообщениям
Вы не можете скачивать файлы