Телеведущий: И снова здравствуйте / Anchorman 2: The Legend Continues (Адам МакКей / Adam McKay) [2013, США, комедия, BDRip 1080p] Dub + Original (Eng) + Sub (Rus, Eng, Ukr)

Ответить на тему
 
Автор Сообщение

user ®

Стаж: 7 лет 7 месяцев

Сообщений: 20008

Пост Пост: #1 от 05-Июн-2014 12:45

[Цитировать]

Телеведущий: И снова здравствуйте / Anchorman 2: The Legend Continues
Страна: США
Производство: Paramount Pictures
Жанр: комедия
Год выпуска: 2013
Продолжительность: 01:52:59
Перевод: Профессиональный (дублированный) BD CEE
Оригинальная аудиодорожка: английская
Cубтитры: русские (forced, full), английские, украинские
Режиссер: Адам МакКей / Adam McKay
В ролях: Уилл Феррелл, Стив Карелл, Пол Радд, Дэвид Кокнер, Кристина Эпплгейт, Дилан Бейкер, Миган Гуд, Джуда Нельсон, Джеймс Марсден, Грег Киннер
Описание: Популярнейший телеведущий Сан-Диего 70-х годов, Рон Бургунди, возвращается, чтобы стать лучшим на первом 24-часовом новостном канале Нью-Йорка…

Релиз: fanatus
Качество видео: BDRip 1080p
Исходник: Anchorman 2: The Legend Continues 2013 1080p CEE Blu-ray AVC DTS-HD MA 5.1-HDCLUB
Контейнер: MKV
Видео: MPEG-4 AVC, 14.7 Mbps , 1920x800 (2.40:1), 23.976 fps, 0.399 bit/pixel
Аудио 1: русский (AC3, 6 ch, 48 kHz, 640 kbps)
Аудио 2: английский (DTS, 6 ch, 48 kHz, 1510 kbps)
Формат субтитров: softsub (SRT)
Главы: есть
MediaInfo
General
Unique ID : 185825374369884677434638704430940563689 (0x8BCCAA509D88E5859767D181235628E9)
Complete name : E:\Televedushhij_I_snova_zdravstvujte.2013.x264.BDRip.1080p.fanatus.mkv
Format : Matroska
Format version : Version 2
File size : 13.3 GiB
Duration : 1h 52mn
Overall bit rate : 16.9 Mbps
Movie name : Anchorman 2: The Legend Continues (2013) - fanatus
Encoded date : UTC 2014-06-03 19:36:02
Writing application : mkvmerge v3.4.0 ('Rapunzel') сборка от May 15 2010 09:38:20
Writing library : libebml v0.8.0 + libmatroska v0.9.0
Attachment : Yes
Video
ID : 1
Format : AVC
Format/Info : Advanced Video Codec
Format profile : High@L4.1
Format settings, CABAC : Yes
Format settings, ReFrames : 5 frames
Codec ID : V_MPEG4/ISO/AVC
Duration : 1h 52mn
Bit rate : 14.7 Mbps
Width : 1 920 pixels
Height : 800 pixels
Display aspect ratio : 2.40:1
Frame rate : 23.976 fps
Color space : YUV
Chroma subsampling : 4:2:0
Bit depth : 8 bits
Scan type : Progressive
Bits/(Pixel*Frame) : 0.399
Stream size : 11.3 GiB (85%)
Title : Anchorman 2: The Legend Continues (2013) BDRip (1080p)
Writing library : x264 core 142 r2431+42 c69a006 tMod [8-bit@all X86]
Encoding settings : cabac=1 / ref=5 / deblock=1:-3:-3 / analyse=0x3:0x113 / me=tesa / subme=11 / psy=1 / fade_compensate=0.00 / psy_rd=1.00:0.05 / mixed_ref=1 / me_range=48 / chroma_me=1 / trellis=2 / 8x8dct=1 / cqm=0 / deadzone=21,11 / fast_pskip=0 / chroma_qp_offset=-3 / threads=16 / lookahead_threads=2 / sliced_threads=0 / nr=0 / decimate=1 / interlaced=0 / bluray_compat=0 / constrained_intra=0 / fgo=0 / bframes=9 / b_pyramid=2 / b_adapt=2 / b_bias=0 / direct=3 / weightb=1 / open_gop=0 / weightp=2 / keyint=240 / keyint_min=23 / scenecut=40 / intra_refresh=0 / rc_lookahead=240 / rc=2pass / mbtree=0 / bitrate=14700 / ratetol=1.0 / qcomp=0.70 / qpmin=0:0:0 / qpmax=69:69:69 / qpstep=4 / cplxblur=20.0 / qblur=0.5 / vbv_maxrate=50000 / vbv_bufsize=62500 / nal_hrd=none / filler=0 / ip_ratio=1.40 / pb_ratio=1.30 / aq=3:0.80 / aq-sensitivity=10.00 / aq-factor=1.00:1.00:1.00 / aq2=0 / aq3=0
Language : English
Default : Yes
Forced : No
Audio #1
ID : 2
Format : AC-3
Format/Info : Audio Coding 3
Mode extension : CM (complete main)
Format settings, Endianness : Big
Codec ID : A_AC3
Duration : 1h 52mn
Bit rate mode : Constant
Bit rate : 640 Kbps
Channel(s) : 6 channels
Channel positions : Front: L C R, Side: L R, LFE
Sampling rate : 48.0 KHz
Bit depth : 16 bits
Compression mode : Lossy
Stream size : 517 MiB (4%)
Title : Dub (BD CEE)
Language : Russian
Default : Yes
Forced : No
Audio #2
ID : 3
Format : DTS
Format/Info : Digital Theater Systems
Codec ID : A_DTS
Duration : 1h 52mn
Bit rate mode : Constant
Bit rate : 1 510 Kbps
Channel(s) : 6 channels
Channel positions : Front: L C R, Side: L R, LFE
Sampling rate : 48.0 KHz
Bit depth : 24 bits
Compression mode : Lossy
Stream size : 1.19 GiB (9%)
Title : Original
Language : English
Default : No
Forced : No
Text #1
ID : 4
Format : UTF-8
Codec ID : S_TEXT/UTF8
Codec ID/Info : UTF-8 Plain Text
Title : Forced
Language : Russian
Default : Yes
Forced : Yes
Text #2
ID : 5
Format : UTF-8
Codec ID : S_TEXT/UTF8
Codec ID/Info : UTF-8 Plain Text
Title : Full
Language : Russian
Default : No
Forced : No
Text #3
ID : 6
Format : UTF-8
Codec ID : S_TEXT/UTF8
Codec ID/Info : UTF-8 Plain Text
Title : Full
Language : English
Default : No
Forced : No
Text #4
ID : 7
Format : UTF-8
Codec ID : S_TEXT/UTF8
Codec ID/Info : UTF-8 Plain Text
Title : Full
Language : Ukrainian
Default : No
Forced : No
Menu
00:00:00.000 : en:Chapter 01
00:08:05.193 : en:Chapter 02
00:13:03.032 : en:Chapter 03
00:18:21.850 : en:Chapter 04
00:23:37.541 : en:Chapter 05
00:31:31.431 : en:Chapter 06
00:35:21.744 : en:Chapter 07
00:39:44.882 : en:Chapter 08
00:44:28.791 : en:Chapter 09
00:49:56.368 : en:Chapter 10
00:54:22.884 : en:Chapter 11
01:00:06.394 : en:Chapter 12
01:07:31.338 : en:Chapter 13
01:11:58.272 : en:Chapter 14
01:18:04.471 : en:Chapter 15
01:23:14.280 : en:Chapter 16
01:27:40.004 : en:Chapter 17
01:35:15.876 : en:Chapter 18
01:40:17.928 : en:Chapter 19
01:47:05.252 : en:Chapter 20
01:52:59.355 : en:Chapter 21
x264 [info]
x264 [info]: 1920x800p 1:1 @ 24000/1001 fps (cfr)
x264 [info]: color matrix: undef
x264 [info]: using SAR=1/1
x264 [info]: using cpu capabilities: MMX2 SSE2Fast SSSE3 SSE4.2 AVX
x264 [info]: profile High, level 4.1
x264 [info]: started at Mon Jun 02 03:47:05 2014
x264 [info]: frame I:1853 Avg QP:12.21 size:299897
x264 [info]: frame P:35025 Avg QP:14.40 size:138040
x264 [info]: frame B:125670 Avg QP:15.99 size: 56257
x264 [info]: consecutive B-frames: 2.6% 2.3% 8.3% 15.6% 18.8% 45.2% 4.8% 1.0% 0.9% 0.4%
x264 [info]: mb I I16..4: 18.5% 53.3% 28.2%
x264 [info]: mb P I16..4: 3.2% 26.9% 3.3% P16..4: 21.4% 28.5% 14.9% 0.0% 0.0% skip: 1.8%
x264 [info]: mb B I16..4: 0.4% 7.3% 0.3% B16..8: 28.3% 23.0% 6.3% direct:11.3% skip:23.2% L0:40.4% L1:36.0% BI:23.6%
x264 [info]: 8x8 transform intra:82.8% inter:41.8%
x264 [info]: direct mvs spatial:98.7% temporal:1.3%
x264 [info]: coded y,uvDC,uvAC intra: 96.5% 95.1% 91.9% inter: 42.1% 41.9% 21.2%
x264 [info]: i16 v,h,dc,p: 12% 6% 25% 57%
x264 [info]: i8 v,h,dc,ddl,ddr,vr,hd,vl,hu: 13% 12% 22% 8% 8% 9% 8% 10% 11%
x264 [info]: i4 v,h,dc,ddl,ddr,vr,hd,vl,hu: 14% 11% 10% 9% 13% 12% 11% 10% 11%
x264 [info]: i8c dc,h,v,p: 61% 15% 14% 10%
x264 [info]: Weighted P-Frames: Y:1.5% UV:1.0%
x264 [info]: ref P L0: 46.0% 9.8% 25.2% 8.5% 9.7% 0.8% 0.0%
x264 [info]: ref B L0: 73.6% 19.0% 5.6% 1.8%
x264 [info]: ref B L1: 92.0% 8.0%
x264 [info]: kb/s:14703.35
x264 [info]: encoded 162548 frames, 1.057 fps, 14703.35 kb/s, 11883 MB
x264 [info]: ended at Tue Jun 03 22:30:05 2014
x264 [info]: encoding duration 42:43:00
Скриншот c названием фильма Скриншоты Source vs Rip
Скачать

Скачать торрент!

Как скачивать? · Что такое торрент? · Рейтинг и ограничения

Сайт не распространяет и не хранит электронные версии произведений, а лишь предоставляет доступ к создаваемому пользователями каталогу ссылок на торрент-файлы, которые содержат только списки хеш-сумм

[Профиль] [ЛС]
Показать сообщения:    
Ответить на тему

Текущее время: Сегодня 07:00

Часовой пояс: GMT + 4



Вы не можете начинать темы
Вы не можете отвечать на сообщения
Вы не можете редактировать свои сообщения
Вы не можете удалять свои сообщения
Вы не можете голосовать в опросах
Вы не можете прикреплять файлы к сообщениям
Вы не можете скачивать файлы