Человек-ракета / RocketMan (Стюарт Гиллард / Stuart Gillard) [1997, США, фантастика, комедия, WEB-DL 1080p] MVO + Sub Eng + Original Eng

Ответить на тему
 
Автор Сообщение

user ®

Стаж: 7 лет 7 месяцев

Сообщений: 20008

Пост Пост: #1 от 05-Июн-2014 12:45

[Цитировать]

Человек-ракета / RocketMan
Страна: США
Жанр: фантастика, комедия
Год выпуска: 1997
Продолжительность: 01:34:01
Перевод: Профессиональный (многоголосый закадровый)
Cубтитры: английские
Оригинальная аудиодорожка: английский
Режиссер: Стюарт Гиллард / Stuart Gillard
В ролях: Харланд Уильямс, Джессика Ланди, Уильям Сэдлер, Джеффри ДеМанн, Джеймс Пикенс мл., Бо Бриджес, Питер Онорати, Дон Лейк, Уильям Артур Дженкинс, Кен Фармер...
Описание: Когда компьютерный гений Фред Рэндэлл создал новую навигационную систему, у него появился реальный шанс испытать ее на деле. После того, как новоиспеченный космонавт случайно покалечил двух «коллег» из его группы, отправляющейся на Марс, он вынужден занять их место на корабле.
Командир экипажа недоволен подобной заменой: вместо первоклассных летчиков ему достается балбес — новичок, прошедший неполный курс подготовки. Единственный на борту, кто понимает Фреда без слов, — шимпанзе по кличке Одиссей, настоящий космический волк. Но на Марсе корабль землян поджидают опасности. Профессионалы бессильны, но, как известно, новичкам всегда везет.
Сэмпл: http://multi-up.com/978194
Тип релиза: WEB-DL 1080p
Контейнер: MKV
Видео: 1916x1036 (1.85:1), 23.976 fps, AVC, ~4966 Kbps, 0.104 bits/pixel
Аудио 1: Russian, 48.0 KHz, AC3, 2 ch, 192 Kbps
Аудио 2: English, 48.0 KHz, AC3, 6 ch, 384 Kbps - English 5.1

MediaInfo
General
Unique ID : 184824913738102470870828895735859039458 (0x8B0BFBCC24301A1494A5F67A814ECCE2)
Complete name : D:\RocketMan.mkv
Format : Matroska
Format version : Version 4 / Version 2
File size : 3.71 GiB
Duration : 1h 34mn
Overall bit rate : 5 654 Kbps
Encoded date : UTC 2014-06-04 11:50:43
Writing application : mkvmerge v6.9.1 ('Blue Panther') 64bit built on Apr 18 2014 18:23:38
Writing library : libebml v1.3.0 + libmatroska v1.4.1
Video
ID : 1
Format : AVC
Format/Info : Advanced Video Codec
Format profile : High@L4.0
Format settings, CABAC : Yes
Format settings, ReFrames : 4 frames
Codec ID : V_MPEG4/ISO/AVC
Duration : 1h 34mn
Bit rate : 4 966 Kbps
Width : 1 916 pixels
Height : 1 036 pixels
Display aspect ratio : 1.85:1
Frame rate mode : Constant
Frame rate : 23.976 fps
Color space : YUV
Chroma subsampling : 4:2:0
Bit depth : 8 bits
Scan type : Progressive
Bits/(Pixel*Frame) : 0.104
Stream size : 3.26 GiB (88%)
Language : English
Default : Yes
Forced : No
Color primaries : BT.709
Transfer characteristics : BT.709
Matrix coefficients : BT.709
Audio #1
ID : 2
Format : AC-3
Format/Info : Audio Coding 3
Mode extension : CM (complete main)
Format settings, Endianness : Big
Codec ID : A_AC3
Duration : 1h 34mn
Bit rate mode : Constant
Bit rate : 192 Kbps
Channel(s) : 2 channels
Channel positions : Front: L R
Sampling rate : 48.0 KHz
Bit depth : 16 bits
Compression mode : Lossy
Stream size : 129 MiB (3%)
Language : Russian
Default : Yes
Forced : No
Audio #2
ID : 3
Format : AC-3
Format/Info : Audio Coding 3
Mode extension : CM (complete main)
Format settings, Endianness : Big
Codec ID : A_AC3
Duration : 1h 34mn
Bit rate mode : Constant
Bit rate : 384 Kbps
Channel(s) : 6 channels
Channel positions : Front: L C R, Side: L R, LFE
Sampling rate : 48.0 KHz
Bit depth : 16 bits
Compression mode : Lossy
Stream size : 258 MiB (7%)
Title : English 5.1
Language : English
Default : No
Forced : No
Text
ID : 4
Format : UTF-8
Codec ID : S_TEXT/UTF8
Codec ID/Info : UTF-8 Plain Text
Language : English
Default : No
Forced : No
Menu
00:00:00.000 : en:Chapter 1
00:08:58.000 : en:Chapter 2
00:19:23.000 : en:Chapter 3
00:31:14.000 : en:Chapter 4
00:42:18.000 : en:Chapter 5
00:51:24.000 : en:Chapter 6
01:00:48.000 : en:Chapter 7
01:11:05.000 : en:Chapter 8
01:19:35.000 : en:Chapter 9
01:27:46.000 : en:Chapter 10
Скриншоты
Скачать

Скачать торрент!

Как скачивать? · Что такое торрент? · Рейтинг и ограничения

Сайт не распространяет и не хранит электронные версии произведений, а лишь предоставляет доступ к создаваемому пользователями каталогу ссылок на торрент-файлы, которые содержат только списки хеш-сумм

[Профиль] [ЛС]
Показать сообщения:    
Ответить на тему

Текущее время: Сегодня 02:01

Часовой пояс: GMT + 4



Вы не можете начинать темы
Вы не можете отвечать на сообщения
Вы не можете редактировать свои сообщения
Вы не можете удалять свои сообщения
Вы не можете голосовать в опросах
Вы не можете прикреплять файлы к сообщениям
Вы не можете скачивать файлы