Караульный пост 506 / Сторожевой пост / The Guard Post: GP506 / G.P. 506 (Су-Чанг Куенг / Su-Chang Kong) [2008, Южная Корея, триллер, ужасы, HDRip] AVO + VO+ original Kor

Ответить на тему
 
Автор Сообщение

user ®

Стаж: 13 лет

Сообщений: 15071

Пост Пост: #1 от 05-Июн-2014 09:35

[Цитировать]

Караульный пост 506 / Сторожевой пост / The Guard Post: GP506 / G.P. 506- -Страна: Южная Корея
Жанр: триллер, ужасы
Год выпуска: 2008
Продолжительность: 02:01:05-Перевод: Авторский (одноголосый закадровый) [Ю.Сербин]
Перевод: Одноголосый закадровый [Интерфильм]-Cубтитры: нет
Оригинальная аудиодорожка: корейский
Режиссер: Су-Чанг Куенг / Su-Chang Kong
В ролях: Чо Хён-Джэй, Йанг-Хунь Лии, Джинг-Вунг Джо, Кью-Хван Чой...
Описание: Когда отряд Караульного поста 506 не вышел на связь раз в полчаса, как обычно, власти заволновались… На этот пост прибывает разведывательный отряд, чтобы разобраться, что там случилось…
Релиз от -
Сэмпл: http://multi-up.com/978301
Качество видео: HDRip
Формат видео: AVI
Видео: MPEG-4 Visual at 2373 Кбит/сек; 704 x 384 (1.833) at 24.000 fps
Аудио: AC-3 at 192 Кбит/сек; 2 канала, 48,0 КГц [AVO]
Аудио: AC-3 at 448 Кбит/сек; 6 каналов, 48,0 КГц [VO]
Аудио: AC-3 at 384 Кбит/сек; 6 каналов, 48,0 КГц [Kor]
Автор:
MediaInfo
Общее
Полное имя : D:\Фильмы\Азиатские\Караульный пост 506\The Guard Post.2008.HDRip.XviD.2900MB. rip by [Assassin's Creed].avi
Формат : AVI
Формат/Информация : Audio Video Interleave
Профиль формата : OpenDML
Размер файла : 2,89 Гбайт
Продолжительность : 2 ч. 1 м.
Общий поток : 3418 Кбит/сек
Программа кодирования : VirtualDubMod 1.5.10.2 (build 2540/release)
Библиотека кодирования : VirtualDubMod build 2540/release
Видео
Идентификатор : 0
Формат : MPEG-4 Visual
Профиль формата : Advanced Simple@L5
Параметр BVOP формата : 1
Параметр QPel формата : Нет
Параметр GMC формата : Без точки перехода
Параметр матрицы формата : Default (MPEG)
Идентификатор кодека : XVID
Идентификатор кодека/Подсказка : XviD
Продолжительность : 2 ч. 1 м.
Битрейт : 2373 Кбит/сек
Ширина : 704 пикселя
Высота : 384 пикселя
Соотношение сторон : 1,85:1
Частота кадров : 24,000 кадра/сек
Цветовое пространство : YUV
Субдискретизация насыщенности : 4:2:0
Битовая глубина : 8 бит
Тип развёртки : Прогрессивная
Метод сжатия : С потерями
Бит/(Пиксели*Кадры) : 0.366
Размер потока : 2,01 Гбайт (69%)
Библиотека кодирования : XviD 1.2.1 (UTC 2008-12-04)
Аудио #1
Идентификатор : 1
Формат : AC-3
Формат/Информация : Audio Coding 3
Расширение режима : CM (complete main)
Параметр Endianness формата : Big
Идентификатор кодека : 2000
Продолжительность : 2 ч. 1 м.
Вид битрейта : Постоянный
Битрейт : 192 Кбит/сек
Каналы : 2 канала
Расположение каналов : Front: L R
Частота : 48,0 КГц
Битовая глубина : 16 бит
Метод сжатия : С потерями
Размер потока : 166 Мбайт (6%)
Выравнивание : Разделение по промежуткам
Продолжительность промежутка : 42 мс. (1,00 видеокадр)
Время предзагрузки промежутка : 500 мс.
Аудио #2
Идентификатор : 2
Формат : AC-3
Формат/Информация : Audio Coding 3
Расширение режима : CM (complete main)
Параметр Endianness формата : Big
Идентификатор кодека : 2000
Продолжительность : 2 ч. 1 м.
Вид битрейта : Постоянный
Битрейт : 448 Кбит/сек
Каналы : 6 каналов
Расположение каналов : Front: L C R, Side: L R, LFE
Частота : 48,0 КГц
Битовая глубина : 16 бит
Метод сжатия : С потерями
Размер потока : 388 Мбайт (13%)
Выравнивание : Разделение по промежуткам
Продолжительность промежутка : 42 мс. (1,00 видеокадр)
Время предзагрузки промежутка : 500 мс.
Аудио #3
Идентификатор : 3
Формат : AC-3
Формат/Информация : Audio Coding 3
Расширение режима : CM (complete main)
Параметр Endianness формата : Big
Идентификатор кодека : 2000
Продолжительность : 2 ч. 1 м.
Вид битрейта : Постоянный
Битрейт : 384 Кбит/сек
Каналы : 6 каналов
Расположение каналов : Front: L C R, Side: L R, LFE
Частота : 48,0 КГц
Битовая глубина : 16 бит
Метод сжатия : С потерями
Размер потока : 333 Мбайт (11%)
Выравнивание : Разделение по промежуткам
Продолжительность промежутка : 42 мс. (1,00 видеокадр)
Время предзагрузки промежутка : 500 мс.
Скриншот c названием фильма Скриншоты
Скачать

Скачать торрент! Караульный пост 506 / Сторожевой пост / The Guard Post: GP506 / G.P. 506 (Су-Чанг Куенг / Su-Chang Kong) [2008, Южная Корея, триллер, ужасы, HDRip] AVO + VO+ original Kor

Как скачивать? · Что такое торрент? · Рейтинг и ограничения

Сайт не распространяет и не хранит электронные версии произведений, а лишь предоставляет доступ к создаваемому пользователями каталогу ссылок на торрент-файлы, которые содержат только списки хеш-сумм

[Профиль] [ЛС]
Показать сообщения:    
Ответить на тему

Текущее время: Сегодня 12:25

Часовой пояс: GMT + 4



Вы не можете начинать темы
Вы не можете отвечать на сообщения
Вы не можете редактировать свои сообщения
Вы не можете удалять свои сообщения
Вы не можете голосовать в опросах
Вы не можете прикреплять файлы к сообщениям
Вы не можете скачивать файлы