Отель «Гранд Будапешт» / The Grand Budapest Hotel (Уэс Андерсон / Wes Anderson) [2014, Великобритания, Германия, комедия, детектив, приключения, криминал, WEB-DLRip] Dub (звук с TS)

Ответить на тему
 
Автор Сообщение

user ®

Стаж: 7 лет 7 месяцев

Сообщений: 20008

Пост Пост: #1 от 05-Июн-2014 01:30

[Цитировать]

-Отель «Гранд Будапешт» / The Grand Budapest Hotel- Страна: Великобритания, Германия
Жанр: Комедия, Детектив, Приключения, Криминал
Год выпуска: 2014
Продолжительность: 01:39:57
Перевод: Профессиональный (дублированный) - звук с TS
Cубтитры: нет
Оригинальная аудиодорожка: нет
Режиссер: Уэс Андерсон / Wes Anderson
Студия: American Empirical Pictures, Indian Paintbrush, Scott Rudin Productions, Studio Babelsberg
В ролях:
Рэйф Файнс, Тони Револори, Сирша Ронан, Эдриан Броуди, Уиллем Дефо, Ф. Мюррэй Абрахам, Джуд Лоу, Эдвард Нортон, Джефф Голдблюм, Харви Кейтель, Том Уилкинсон, Матье Амальрик, Тильда Суинтон, Леа Сейду, Джейсон Шварцман, Билл Мюррей, Оуэн Уилсон, Ларри Пайн, Флориан Лукас, Джизельда Володи, Карл Маркович, Фолькер Михаловски, Нил Хафф, Боб Бэлабан, Фишер Стивенс, Уоллес Володарски, Варис Ахлувалиа, Даниэль Штайнер, Мари Гойетт, Хендрик фон Бюльцингслёвен, Милтон Уэлш, Гэбриел Раш, Ханнес Вегенер, Марио Рон.
Описание:
Фильм рассказывает об увлекательных приключениях легендарного консьержа Густава и его юного друга, портье Зеро Мустафы. Сотрудники гостиницы становятся свидетелями кражи и поисков бесценных картин эпохи Возрождения, борьбы за огромное состояние богатой семьи и… драматических изменений в Европе между двумя кровопролитными войнами XX века.

Качество видео: WEB-DLRip
Формат видео: AVI
Видео: Xvid, 720x384, 23.976fps, 1725kbps
Аудио: MP3, 44100Hz, 2 channels, 128kbps

MediaInfo
General
Format : AVI
Format/Info : Audio Video Interleave
File size : 1.35 GiB
Duration : 1h 39mn
Overall bit rate : 1 939 Kbps
Writing application : VirtualDubMod 1.5.10.3 | www.virtualdub-fr.org || (build 2550/release)
Writing library : VirtualDubMod build 2550/release
Video
ID : 0
Format : MPEG-4 Visual
Codec ID : XVID
Codec ID/Hint : XviD
Duration : 1h 39mn
Bit rate : 1 725 Kbps
Width : 720 pixels
Height : 384 pixels
Display aspect ratio : 1.85:1
Frame rate : 23.976 fps
Color space : YUV
Chroma subsampling : 4:2:0
Compression mode : Lossy
Bits/(Pixel*Frame) : 0.260
Stream size : 1.20 GiB (89%)
Audio
ID : 1
Format : MPEG Audio
Codec ID : 55
Codec ID/Hint : MP3
Duration : 1h 39mn
Bit rate : 128 Kbps
Channel(s) : 2 channels
Sampling rate : 44.1 KHz
Compression mode : Lossy
Stream size : 91.3 MiB (7%)
Alignment : Aligned on interleaves
Screenshot movie title Screenshots
Скачать

Скачать торрент!

Как скачивать? · Что такое торрент? · Рейтинг и ограничения

Сайт не распространяет и не хранит электронные версии произведений, а лишь предоставляет доступ к создаваемому пользователями каталогу ссылок на торрент-файлы, которые содержат только списки хеш-сумм

[Профиль] [ЛС]
Показать сообщения:    
Ответить на тему

Текущее время: Сегодня 07:58

Часовой пояс: GMT + 4



Вы не можете начинать темы
Вы не можете отвечать на сообщения
Вы не можете редактировать свои сообщения
Вы не можете удалять свои сообщения
Вы не можете голосовать в опросах
Вы не можете прикреплять файлы к сообщениям
Вы не можете скачивать файлы