Анатомия любви / Endless Love (Шана Фест / Shana Feste) [2014 г., США, драма, мелодрама, BDRip] Dub

Ответить на тему
 
Автор Сообщение

user ®

Стаж: 7 лет 7 месяцев

Сообщений: 20008

Пост Пост: #1 от 04-Июн-2014 19:10

[Цитировать]

Анатомия любвиEndless Love-«Она никогда не будет прежней»- Год выпуска: 2014
Страна: США-Жанр: драма, мелодрама
Продолжительность: 01:44:38
Перевод: Профессиональный (полное дублирование)
Субтитры: нет-Режиссер: Шана Фест / Shana Feste
Сценарий: Шана Фест / Shana Feste, Джошуа Сафран / Joshua Safran, Скотт Спенсер / Scott Spencer
Продюсер: Памела Эбди / Pamela Abdy, Стефани Сэвадж / Stephanie Savage, Джош Шварц / Josh Schwartz, Скотт Стубер / Scott Stuber, Майкл Бедерман / Michael Bederman
Оператор: Эндрю Данн / Andrew Dunn
Композитор: Кристоф Бек / Christophe Beck-В ролях: Алекс Петтифер (David Elliot), Габриэлла Уайлд (Jade Butterfield), Брюс Гринвуд (Hugh Butterfield), Джоэли Ричардсон (Anne Butterfield), Роберт Патрик (Harry Elliot), Риз Уэйкфилд (Keith Butterfield), Дайо Окенайи (Mace), Эмма Ригби (Jenny), Анна Энгер (Sabine), Фаббианн Терез (Checka), Майк Блэнд (Harry's Friend), Джейк Шульц (Harry's Friend)
Дублёры: Сергей Смирнов (David Elliot), Евгения Ваган (Jade Butterfield), Владимир Зайцев (Hugh Butterfield), Любовь Германова (Anne Butterfield), Александр Носков (Harry Elliot), Станислав Тикунов (Keith Butterfield), Олег Новиков (Mace), Лина Иванова (Jenny), Екатерина Виноградова (Sabine), Сергей Чихачев (Joe), Владимир Антипов-Описание: Он - далеко не ангел, высокий дерзкий парень, помешанный на тачках. Она - примерная ученица, белокурая красотка из богатой семьи. Их любовь под запретом, а потому вдвойне желанна. Страсть сжигает их дотла и бросает в бездну.-kinopoisk.ru: 6.498 (2488)
imdb.com: 6.30 (9051)
MPAA: PG-13 - Детям до 13 лет просмотр не желателен-Качество: BDRip
Контейнер: AVI
Видео: 688x288 (2.39:1), 23.976 fps, XviD build 65 ~861 kbps avg, 0.18 bit/pixel
Аудио: 48 kHz, MPEG Layer 3, 2 ch, ~128.00 kbps avg-MediaInfo
General
Complete name                            : E:\Рипы\Endless.Love.2014.BDRip.Dub.All.Films.avi
Format                                   : AVI
Format/Info                              : Audio Video Interleave
File size                                : 745 MiB
Duration                                 : 1h 44mn
Overall bit rate                         : 996 Kbps
Movie name                               : Endless.Love.2014.BDRip.Dub.All.Films
Director                                 : DIABLO93
Genre                                    : Drama/Romance
Writing application                      : VirtualDubMod 1.5.10.3 | www.virtualdub-fr.org || (build 2550/release)
Original source form/Name                : Movie
Copyright                                :
Video
ID                                       : 0
Format                                   : MPEG-4 Visual
Format profile                           : Advanced Simple@L5
Format settings, BVOP                    : 2
Format settings, QPel                    : No
Format settings, GMC                     : No warppoints
Format settings, Matrix                  : Custom
Codec ID                                 : XVID
Codec ID/Hint                            : XviD
Duration                                 : 1h 44mn
Bit rate                                 : 862 Kbps
Width                                    : 688 pixels
Height                                   : 288 pixels
Display aspect ratio                     : 2.40:1
Frame rate                               : 23.976 fps
Color space                              : YUV
Chroma subsampling                       : 4:2:0
Bit depth                                : 8 bits
Scan type                                : Progressive
Compression mode                         : Lossy
Bits/(Pixel*Frame)                       : 0.181
Stream size                              : 645 MiB (87%)
Writing library                          : XviD 65
Audio
ID                                       : 1
Format                                   : MPEG Audio
Format version                           : Version 1
Format profile                           : Layer 3
Mode                                     : Joint stereo
Mode extension                           : MS Stereo
Codec ID                                 : 55
Codec ID/Hint                            : MP3
Duration                                 : 1h 42mn
Bit rate mode                            : Constant
Bit rate                                 : 128 Kbps
Channel(s)                               : 2 channels
Sampling rate                            : 48.0 KHz
Compression mode                         : Lossy
Stream size                              : 93.4 MiB (13%)
Alignment                                : Aligned on interleaves
Interleave, duration                     : 43 ms (1.03 video frame)
Interleave, preload duration             : 504 ms

-
Сэмпл Скриншоты
Скачать

Скачать торрент!

Как скачивать? · Что такое торрент? · Рейтинг и ограничения

Сайт не распространяет и не хранит электронные версии произведений, а лишь предоставляет доступ к создаваемому пользователями каталогу ссылок на торрент-файлы, которые содержат только списки хеш-сумм

[Профиль] [ЛС]
Показать сообщения:    
Ответить на тему

Текущее время: Сегодня 01:50

Часовой пояс: GMT + 4



Вы не можете начинать темы
Вы не можете отвечать на сообщения
Вы не можете редактировать свои сообщения
Вы не можете удалять свои сообщения
Вы не можете голосовать в опросах
Вы не можете прикреплять файлы к сообщениям
Вы не можете скачивать файлы