Помпеи / Pompeii (Пол У. С. Андерсон / Paul W.S. Anderson) [2014 г., Канада, Германия, боевик, драма, мелодрама, BDRip] Dub

Ответить на тему
 
Автор Сообщение

user ®

Стаж: 7 лет 7 месяцев

Сообщений: 20008

Пост Пост: #1 от 04-Июн-2014 19:10

[Цитировать]

ПомпеиPompeii-«Некоторые истории пишутся кровью»- Год выпуска: 2014
Страна: Канада, Германия-Жанр: боевик, драма, мелодрама, приключения
Продолжительность: 01:44:38
Перевод: Профессиональный (полное дублирование)
Субтитры: нет-Режиссер: Пол У. С. Андерсон / Paul W.S. Anderson
Сценарий: Джанет Скотт Бэчлер / Janet Scott Batchler, Ли Бэчлер / Lee Batchler, Майкл Роберт Джонсон / Michael Robert Johnson
Продюсер: Пол У. С. Андерсон / Paul W.S. Anderson, Джереми Болт / Jeremy Bolt, Дон Кармоди / Don Carmody, Роберт Кульцер / Robert Kulzer, Джон Браун / Jon Brown
Оператор: Глен МакФерсон / Glen MacPherson
Композитор: Клинтон Шотер / Clinton Shorter-В ролях: Кит Харингтон (Milo), Эмили Браунинг (Cassia), Кифер Сазерленд (Corvus), Адевале Акинойе-Агбаже (Atticus), Джаред Харрис (Severus), Кэрри-Энн Мосс (Aurelia), Джессика Лукас (Ariadne), Саша Ройз (Proculus), Джо Пинг (Graecus), Карри Грэм (Bellator), Дилан Шомбинг (Young Milo), Максим Савариа (Biggest Thracian)
Дублёры: Станислав Тикунов (Milo), Мария Иващенко (Cassia), Валерий Сторожик (Corvus), Олег Куценко (Atticus), Александр Клюквин (Severus), Елена Соловьева (Aurelia), Вероника Саркисова (Ariadne), Сергей Чихачев (Graecus), Денис Некрасов (Bellator)-Описание: История любви раба Майло и благородной Кассии, обрученной с римским сенатором, на фоне извержения Везувия, которое навсегда стерло с лица земли древнеримский город Помпеи...-kinopoisk.ru: 6.233 (18 116)
imdb.com: 5.70 (36 366)
MPAA: PG-13 - Детям до 13 лет просмотр не желателен-Качество: BDRip / POMPEII_2014_2D_3D_BDREMUX_HDCLUB.iso
Контейнер: AVI
Видео: 688x288 (2.39:1), 23.976 fps, XviD build 65 ~858 kbps avg, 0.18 bit/pixel
Аудио: 48 kHz, MPEG Layer 3, 2 ch, ~128.00 kbps avg-MediaInfo
General
Complete name                            : E:\Рипы\Pompeii.2014.BDRip.Dub.All.Films.avi
Format                                   : AVI
Format/Info                              : Audio Video Interleave
File size                                : 745 MiB
Duration                                 : 1h 44mn
Overall bit rate                         : 992 Kbps
Movie name                               : Pompeii.2014.BDRip.Dub.All.Films
Director                                 : DIABLO93
Genre                                    : Action/Adventure/Drama
Writing application                      : VirtualDubMod 1.5.10.3 | www.virtualdub-fr.org || (build 2550/release)
Original source form/Name                : Movie
Copyright                                :
Video
ID                                       : 0
Format                                   : MPEG-4 Visual
Format profile                           : Advanced Simple@L5
Format settings, BVOP                    : 2
Format settings, QPel                    : No
Format settings, GMC                     : No warppoints
Format settings, Matrix                  : Custom
Codec ID                                 : XVID
Codec ID/Hint                            : XviD
Duration                                 : 1h 44mn
Bit rate                                 : 858 Kbps
Width                                    : 688 pixels
Height                                   : 288 pixels
Display aspect ratio                     : 2.40:1
Frame rate                               : 23.976 fps
Color space                              : YUV
Chroma subsampling                       : 4:2:0
Bit depth                                : 8 bits
Scan type                                : Progressive
Compression mode                         : Lossy
Bits/(Pixel*Frame)                       : 0.181
Stream size                              : 644 MiB (87%)
Writing library                          : XviD 65
Audio
ID                                       : 1
Format                                   : MPEG Audio
Format version                           : Version 1
Format profile                           : Layer 3
Mode                                     : Joint stereo
Mode extension                           : MS Stereo
Codec ID                                 : 55
Codec ID/Hint                            : MP3
Duration                                 : 1h 42mn
Bit rate mode                            : Constant
Bit rate                                 : 128 Kbps
Channel(s)                               : 2 channels
Sampling rate                            : 48.0 KHz
Compression mode                         : Lossy
Stream size                              : 93.4 MiB (13%)
Alignment                                : Aligned on interleaves
Interleave, duration                     : 43 ms (1.03 video frame)
Interleave, preload duration             : 504 ms

-
Сэмпл Скриншоты
Скачать

Скачать торрент!

Как скачивать? · Что такое торрент? · Рейтинг и ограничения

Сайт не распространяет и не хранит электронные версии произведений, а лишь предоставляет доступ к создаваемому пользователями каталогу ссылок на торрент-файлы, которые содержат только списки хеш-сумм

[Профиль] [ЛС]
Показать сообщения:    
Ответить на тему

Текущее время: Сегодня 03:15

Часовой пояс: GMT + 4



Вы не можете начинать темы
Вы не можете отвечать на сообщения
Вы не можете редактировать свои сообщения
Вы не можете удалять свои сообщения
Вы не можете голосовать в опросах
Вы не можете прикреплять файлы к сообщениям
Вы не можете скачивать файлы