Помпеи / Pompeii (Пол У. С. Андерсон / Paul W.S. Anderson) [2014, Канада, Германия, боевик, драма, мелодрама, приключения, BDRip 1080p] Dub + Original Eng + Com Eng + Sub Rus, Eng

Ответить на тему
 
Автор Сообщение

user ®

Стаж: 7 лет 7 месяцев

Сообщений: 20008

Пост Пост: #1 от 04-Июн-2014 12:00

[Цитировать]

Помпеи / Pompeii- Страна: Канада, Германия
Жанр: боевик, драма, мелодрама, приключения
Год выпуска: 2014
Продолжительность: 01:44:59
Перевод:

  • Профессиональный (дублированный)
    Cубтитры: русские, английские
    Оригинальная аудиодорожка: английский-Режиссер: Пол У. С. Андерсон / Paul W.S. Anderson
    В ролях: Кит Харингтон, Эмили Браунинг, Кифер Сазерленд, Адевале Акинойе-Агбаже, Джаред Харрис, Кэрри-Энн Мосс, Джессика Лукас, Саша Ройз, Джо Пинг, Карри Грэм.
    Описание: Сюжет фильма рассказывает историю о невероятной любви, которая произошла в древние века в Римской империи. Майло — маленький деревенский мальчишка, которому чудом удалось выжить после того, как римские солдаты напали на поселение и уничтожили всех ее жителей, включая и его семью. После этого страшного происшествия прошло несколько лет, за которые Майло сумел стать одним из самых сильных гладиаторов империи. Однако он не является свободным человеком, он — раб, жизнь которого принадлежит влиятельному хозяину. Однажды он прибывает в Помпеи, где должен пройти гладиаторский поединок, по итогам которого, лучшему бойцу будет дарована свобода. Именно здесь он встречает красавицу Кассию, дочь одного из самых богатых граждан города, который обещал отдать ее в жены римскому сенатору. Между молодыми людьми появляются взаимные чувства, но на их пути становится не только помолвка девушки, но и пробудившийся вулкан Везувий...-Качество: BDRip 1080p | Контейнер: MKV | Рип: NTb
    Видео: 1920x800 (2.40:1), 23.976 fps, x264@L4.1 ~14400 kbps avg
    Аудио 1: Russian 48 kHz, DTS, 3/2 (L,C,R,l,r) + LFE ch, 1509.00 kbps avg | BD RUS
    Аудио 2: English 48 kHz, DTS, 3/2 (L,C,R,l,r) + LFE ch, 1509.00 kbps avg | Original
    Аудио 3: English 48 kHz, AC3, 2/0 (L,R) ch, 192.00 kbps avg | Commentary

    Сэмпл
Скриншоты Медиаинфо
Общее
Формат : Matroska
Версия формата : Version 4 / Version 2
Размер файла : 13,2 Гбайт
Продолжительность : 1 ч. 44 м.
Общий поток : 18,0 Мбит/сек
Название фильма : Pompeii 2014
Дата кодирования : UTC 2014-06-01 14:11:24
Программа кодирования : mkvmerge v6.1.0 ('Old Devil') built on Mar 4 2013 09:10:42
Библиотека кодирования : libebml v1.3.0 + libmatroska v1.4.0
Видео
Идентификатор : 1
Формат : AVC
Формат/Информация : Advanced Video Codec
Профиль формата : High@L4.1
Параметр CABAC формата : Да
Параметр ReFrames формата : 5 кадров
Идентификатор кодека : V_MPEG4/ISO/AVC
Продолжительность : 1 ч. 44 м.
Битрейт : 14,4 Мбит/сек
Ширина : 1920 пикселей
Высота : 800 пикселей
Соотношение сторон : 2,40:1
Режим частоты кадров : Постоянный
Частота кадров : 23,976 кадра/сек
Цветовое пространство : YUV
Субдискретизация насыщенности : 4:2:0
Битовая глубина : 8 бит
Тип развёртки : Прогрессивная
Бит/(Пиксели*Кадры) : 0.392
Размер потока : 10,6 Гбайт (80%)
Заголовок : BDRip 1080p
Библиотека кодирования : x264 core 142 r2389kMod 956c8d8
Настройки программы : cabac=1 / ref=5 / deblock=1:-3:-3 / analyse=0x3:0x133 / me=tesa / subme=10 / psy=1 / fade_compensate=0.00 / psy_rd=1.00:0.00 / mixed_ref=1 / me_range=24 / chroma_me=1 / trellis=2 / 8x8dct=1 / cqm=0 / deadzone=21,11 / fast_pskip=1 / chroma_qp_offset=-2 / threads=16 / lookahead_threads=2 / sliced_threads=0 / nr=0 / decimate=1 / interlaced=0 / bluray_compat=0 / constrained_intra=0 / fgo=0 / bframes=9 / b_pyramid=2 / b_adapt=2 / b_bias=0 / direct=3 / weightb=1 / open_gop=0 / weightp=2 / keyint=250 / keyint_min=23 / scenecut=40 / intra_refresh=0 / rc_lookahead=200 / rc=crf / mbtree=0 / crf=17.0000 / qcomp=0.75 / qpmin=0 / qpmax=69 / qpstep=4 / vbv_maxrate=50000 / vbv_bufsize=62500 / crf_max=0.0 / nal_hrd=none / filler=0 / ip_ratio=1.20 / pb_ratio=1.10 / aq=1:0.70
Язык : English
Default : Да
Forced : Нет
Аудио #1
Идентификатор : 2
Формат : DTS
Формат/Информация : Digital Theater Systems
Режим : 16
Параметр Endianness формата : Big
Идентификатор кодека : A_DTS
Продолжительность : 1 ч. 44 м.
Вид битрейта : Постоянный
Битрейт : 1509 Кбит/сек
Каналы : 6 каналов
Расположение каналов : Front: L C R, Side: L R, LFE
Частота : 48,0 КГц
Битовая глубина : 24 бит
Метод сжатия : С потерями
Размер потока : 1,11 Гбайт (8%)
Заголовок : BD RUS
Язык : Russian
Default : Да
Forced : Нет
Аудио #2
Идентификатор : 3
Формат : DTS
Формат/Информация : Digital Theater Systems
Режим : 16
Параметр Endianness формата : Big
Идентификатор кодека : A_DTS
Продолжительность : 1 ч. 44 м.
Вид битрейта : Постоянный
Битрейт : 1509 Кбит/сек
Каналы : 6 каналов
Расположение каналов : Front: L C R, Side: L R, LFE
Частота : 48,0 КГц
Битовая глубина : 24 бит
Метод сжатия : С потерями
Размер потока : 1,11 Гбайт (8%)
Заголовок : Original
Язык : English
Default : Нет
Forced : Нет
Аудио #3
Идентификатор : 4
Формат : AC-3
Формат/Информация : Audio Coding 3
Профиль формата : Dolby Digital
Расширение режима : CM (complete main)
Параметр Endianness формата : Big
Идентификатор кодека : A_AC3
Продолжительность : 1 ч. 44 м.
Вид битрейта : Постоянный
Битрейт : 192 Кбит/сек
Каналы : 2 канала
Расположение каналов : Front: L R
Частота : 48,0 КГц
Битовая глубина : 16 бит
Метод сжатия : С потерями
Размер потока : 144 Мбайт (1%)
Заголовок : Commentary
Язык : English
Default : Нет
Forced : Нет
Текст #1
Идентификатор : 5
Формат : UTF-8
Идентификатор кодека : S_TEXT/UTF8
Идентификатор кодека/Информация : UTF-8 Plain Text
Заголовок : Full
Язык : Russian
Default : Нет
Forced : Нет
Текст #2
Идентификатор : 6
Формат : UTF-8
Идентификатор кодека : S_TEXT/UTF8
Идентификатор кодека/Информация : UTF-8 Plain Text
Заголовок : Full
Язык : English
Default : Нет
Forced : Нет
Текст #3
Идентификатор : 7
Формат : UTF-8
Идентификатор кодека : S_TEXT/UTF8
Идентификатор кодека/Информация : UTF-8 Plain Text
Заголовок : Full SDH
Язык : English
Default : Нет
Forced : Нет
Текст #4
Идентификатор : 8
Формат : UTF-8
Идентификатор кодека : S_TEXT/UTF8
Идентификатор кодека/Информация : UTF-8 Plain Text
Заголовок : Comments
Язык : English
Default : Нет
Forced : Нет
Меню
00:00:00.000 : en:Chapter 1
00:05:27.077 : en:Chapter 2
00:09:51.674 : en:Chapter 3
00:15:58.457 : en:Chapter 4
00:19:52.858 : en:Chapter 5
00:26:45.103 : en:Chapter 6
00:32:36.621 : en:Chapter 7
00:38:18.838 : en:Chapter 8
00:47:35.811 : en:Chapter 9
00:52:17.718 : en:Chapter 10
01:03:25.218 : en:Chapter 11
01:09:02.930 : en:Chapter 12
01:17:27.309 : en:Chapter 13
01:23:46.521 : en:Chapter 14
01:30:04.149 : en:Chapter 15
01:35:08.119 : en:Chapter 16
Скачать

Скачать торрент!

Как скачивать? · Что такое торрент? · Рейтинг и ограничения

Сайт не распространяет и не хранит электронные версии произведений, а лишь предоставляет доступ к создаваемому пользователями каталогу ссылок на торрент-файлы, которые содержат только списки хеш-сумм

[Профиль] [ЛС]
Показать сообщения:    
Ответить на тему

Текущее время: Сегодня 23:47

Часовой пояс: GMT + 4



Вы не можете начинать темы
Вы не можете отвечать на сообщения
Вы не можете редактировать свои сообщения
Вы не можете удалять свои сообщения
Вы не можете голосовать в опросах
Вы не можете прикреплять файлы к сообщениям
Вы не можете скачивать файлы