Имена людей / Le nom des gens / The Names of Love (Мишель Леклерк / Michel Leclerc) [2010, Франция, комедия, BDRip 720p] 2х DVO + Sub Rus, Eng + Original Fre

Ответить на тему
 
Автор Сообщение

user ®

Стаж: 7 лет 7 месяцев

Сообщений: 20008

Пост Пост: #1 от 04-Июн-2014 12:00

[Цитировать]

Имена людей / Le nom des gens / The Names of Love
Страна: Франция
Студия: Canal+ [fr], TF1 Droits Audiovisuels и др.
Жанр: комедия
Год выпуска: 2010
Продолжительность: 01:38:55
Перевод: Профессиональный (двухголосый закадровый) НТВ+
Перевод 2: Любительский (двухголосый закадровый) ViruseProject
Cубтитры: русские, английские
Оригинальная аудиодорожка: французский
Режиссер: Мишель Леклерк / Michel Leclerc
В ролях: Жак Гамблен, Сара Форестье, Зинедин Суалем, Кароль Франк, Жак Буде, Мишель Моретти, Закария Гуран, Жюлия Вайдис-Богар, Адриэн Стокле, Камиль Жиго
Описание: Байя Бенмахмуд — экспрессивная молодая особа с активной гражданской позицией и именем, данным в честь штата Бразилии. Следуя лозунгам хиппи, она занимается любовью, а не войной. Таким образом, она спит с теми, кто придерживается правых взглядов, чтобы обратить их на свою сторону. Но однажды она встречает свою противоположность — 40-летнего биолога Артура Мартена. Байя определяет его в потенциальные фашисты, сочтя параноидальными его выступления про принцип предосторожности и птичий грипп. Кроме того, у него типичное распространённое французское имя, которое, к тому же, является одним из брендов Electrolux. В ходе фильма выясняется, что имена, как и внешность, часто бывают обманчивы.

Sample
Тип релиза: BDRip 720p
Контейнер: MKV
Видео: MPEG4 AVC Video, H264, 16:9, 1280x692, 25 fps, 6598 kbps
Аудио: Russian (AC3, 2 ch, 192 kbps, 16 bits, 48.0 KHz) - НТВ+
Аудио 2: Russian (AC3, 2 ch, 192 kbps, 16 bits, 48.0 KHz) - ViruseProject
Аудио 3: French (DTS, 6 ch, 1509 kbps, 16 bits, 48.0 KHz) - оригинал
Формат субтитров: softsub (SRT)
MediaInfo
General
Unique ID : 191753979622070690380530762294082593984 (0x9042791F1C413849A8F9209F88A6E4C0)
Complete name : E:\1\Имена людей\Имена людей 2010.mkv
Format : Matroska
Format version : Version 4 / Version 2
File size : 5.99 GiB
Duration : 1h 38mn
Overall bit rate : 8 664 Kbps
Encoded date : UTC 2014-06-03 07:47:33
Writing application : mkvmerge v6.1.0 ('Old Devil') built on Mar 2 2013 14:32:37
Writing library : libebml v1.3.0 + libmatroska v1.4.0
Video
ID : 1
Format : AVC
Format/Info : Advanced Video Codec
Format profile : High@L4.1
Format settings, CABAC : Yes
Format settings, ReFrames : 9 frames
Codec ID : V_MPEG4/ISO/AVC
Duration : 1h 38mn
Bit rate : 6 598 Kbps
Width : 1 280 pixels
Height : 692 pixels
Display aspect ratio : 1.85:1
Frame rate mode : Constant
Frame rate : 25.000 fps
Color space : YUV
Chroma subsampling : 4:2:0
Bit depth : 8 bits
Scan type : Progressive
Bits/(Pixel*Frame) : 0.298
Stream size : 4.56 GiB (76%)
Writing library : x264 core 138 r2359+704+48 3f879a0 tMod [8-bit@all X86_64]
Encoding settings : cabac=1 / ref=9 / deblock=1:-3:-3 / analyse=0x3:0x133 / me=umh / subme=11 / psy=1 / fade_compensate=0.00 / psy_rd=1.00:0.00 / mixed_ref=1 / me_range=36 / chroma_me=1 / trellis=2 / 8x8dct=1 / cqm=0 / deadzone=21,11 / fast_pskip=0 / chroma_qp_offset=-2 / threads=12 / lookahead_threads=3 / sliced_threads=0 / nr=0 / decimate=1 / interlaced=0 / bluray_compat=0 / constrained_intra=0 / fgo=0 / bframes=16 / b_pyramid=2 / b_adapt=2 / b_bias=0 / direct=3 / weightb=1 / open_gop=0 / weightp=2 / keyint=250 / keyint_min=25 / scenecut=40 / intra_refresh=0 / rc=crf / mbtree=0 / crf=17.1000 / qcomp=0.80 / qpmin=0:0:0 / qpmax=69:69:69 / qpstep=4 / ip_ratio=1.30 / pb_ratio=1.20 / aq=4:1.00 / aq-sensitivity=10.00 / aq-factor=1.00:1.00:1.00 / aq2=0 / aq3=0
Language : French
Default : Yes
Forced : No
Audio #1
ID : 2
Format : AC-3
Format/Info : Audio Coding 3
Mode extension : CM (complete main)
Format settings, Endianness : Big
Codec ID : A_AC3
Duration : 1h 38mn
Bit rate mode : Constant
Bit rate : 192 Kbps
Channel count : 2 channels
Channel positions : Front: L R
Sampling rate : 48.0 KHz
Bit depth : 16 bits
Compression mode : Lossy
Stream size : 136 MiB (2%)
Title : Нтв+
Language : Russian
Default : Yes
Forced : No
Audio #2
ID : 3
Format : AC-3
Format/Info : Audio Coding 3
Mode extension : CM (complete main)
Format settings, Endianness : Big
Codec ID : A_AC3
Duration : 1h 38mn
Bit rate mode : Constant
Bit rate : 192 Kbps
Channel count : 2 channels
Channel positions : Front: L R
Sampling rate : 48.0 KHz
Bit depth : 16 bits
Compression mode : Lossy
Stream size : 136 MiB (2%)
Title : Viruse Project
Language : Russian
Default : No
Forced : No
Audio #3
ID : 4
Format : DTS
Format/Info : Digital Theater Systems
Mode : 16
Format settings, Endianness : Big
Codec ID : A_DTS
Duration : 1h 38mn
Bit rate mode : Constant
Bit rate : 1 509 Kbps
Channel count : 6 channels
Channel positions : Front: L C R, Side: L R, LFE
Sampling rate : 48.0 KHz
Bit depth : 16 bits
Compression mode : Lossy
Stream size : 1.04 GiB (17%)
Language : French
Default : No
Forced : No
Text #1
ID : 5
Format : UTF-8
Codec ID : S_TEXT/UTF8
Codec ID/Info : UTF-8 Plain Text
Language : Russian
Default : No
Forced : No
Text #2
ID : 6
Format : UTF-8
Codec ID : S_TEXT/UTF8
Codec ID/Info : UTF-8 Plain Text
Language : English
Default : No
Forced : No
Menu
00:00:00.000 : en:00:00:00.000
00:04:09.920 : en:00:04:09.920
00:13:11.360 : en:00:13:11.360
00:20:49.080 : en:00:20:49.080
00:26:03.400 : en:00:26:03.400
00:32:02.720 : en:00:32:02.720
00:37:38.400 : en:00:37:38.400
00:46:42.840 : en:00:46:42.840
00:52:01.800 : en:00:52:01.800
00:58:50.640 : en:00:58:50.640
01:07:32.320 : en:01:07:32.320
01:13:22.600 : en:01:13:22.600
01:18:45.120 : en:01:18:45.120
01:24:27.400 : en:01:24:27.400
01:28:58.840 : en:01:28:58.840
01:33:23.640 : en:01:33:23.640
Скриншоты
Скачать

Скачать торрент!

Как скачивать? · Что такое торрент? · Рейтинг и ограничения

Сайт не распространяет и не хранит электронные версии произведений, а лишь предоставляет доступ к создаваемому пользователями каталогу ссылок на торрент-файлы, которые содержат только списки хеш-сумм

[Профиль] [ЛС]
Показать сообщения:    
Ответить на тему

Текущее время: Сегодня 19:28

Часовой пояс: GMT + 4



Вы не можете начинать темы
Вы не можете отвечать на сообщения
Вы не можете редактировать свои сообщения
Вы не можете удалять свои сообщения
Вы не можете голосовать в опросах
Вы не можете прикреплять файлы к сообщениям
Вы не можете скачивать файлы