Реквием по девушке / Requiem Pro Panenku (Филип Ренч / Filip Renc) [1992, Чехословакия, драма, HDTVRip 720p] VO + Original Cze

Ответить на тему
 
Автор Сообщение

user ®

Стаж: 7 лет 7 месяцев

Сообщений: 20008

Пост Пост: #1 от 04-Июн-2014 12:00

[Цитировать]

Реквием по девушке / Requiem pro panenku
-Страна: Чехословакия
Жанр: драма
Год выпуска: 1992
Продолжительность: 01:33:46-Перевод: Одноголосый закадровый (Ирина Гусева)
Cубтитры: нет
Оригинальная аудиодорожка: чешский-Режиссер: Филип Ренч / Filip Renc
В ролях: Анна Гейслерова, Барбара Хрзанова, Соня Валентова, Ева Голубова, Жан Шмид, Филип Ренч, Эдуард Цупак-Описание: Фильм основан на реальных событиях. Молодую девушку Марику изнасиловал ее отец, и впоследствии она попала в детский дом-приют для девушек с психическими отклонениями. Здесь она столкнулась с жесткими, почти тюремными порядками. Фильм поставлен молодым преуспевающим чешским режиссером Ренчем.-Сэмпл: http://multi-up.com/977973
]-Тип релиза: HDTVRip 720p (thnx DON)
Контейнер: MKV
Видео: H.264/AVC, 1194x720, 1.66:1, 25.00fps, 8981kbps
Аудио: Русский, AC3 2.0, 192kbps, 48 kHz
Аудио 2: Чешский, AC3 2.0, 448kbps, 48 kHz
MediaInfo
Complete name : Requiem.pro.panenku.1992.720p.HDTV.Rus.Cze.mkv
Format : Matroska
Format version : Version 4 / Version 2
File size : 6.43 GiB
Duration : 1h 33mn
Overall bit rate : 9 808 Kbps
Movie name : Requiem pro panenku (1992)
Encoded date : UTC 2014-06-03 14:39:21
Writing application : mkvmerge v6.9.1 ('Blue Panther') 32bit built on Apr 18 2014 18:15:44
Writing library : libebml v1.3.0 + libmatroska v1.4.1
Video
ID : 1
Format : AVC
Format/Info : Advanced Video Codec
Format profile : High@L4.1
Format settings, CABAC : Yes
Format settings, ReFrames : 9 frames
Codec ID : V_MPEG4/ISO/AVC
Duration : 1h 33mn
Bit rate : 8 973 Kbps
Width : 1 194 pixels
Height : 720 pixels
Display aspect ratio : 1.658
Frame rate mode : Constant
Frame rate : 25.000 fps
Color space : YUV
Chroma subsampling : 4:2:0
Bit depth : 8 bits
Scan type : Progressive
Bits/(Pixel*Frame) : 0.417
Stream size : 5.88 GiB (91%)
Writing library : x264 core 140 r2377 1ca7bb9
Encoding settings : cabac=1 / ref=9 / deblock=1:-3:-3 / analyse=0x3:0x133 / me=tesa / subme=10 / psy=1 / psy_rd=1.05:0.00 / mixed_ref=1 / me_range=24 / chroma_me=1 / trellis=2 / 8x8dct=1 / cqm=0 / deadzone=21,11 / fast_pskip=0 / chroma_qp_offset=-2 / threads=12 / lookahead_threads=2 / sliced_threads=0 / nr=0 / decimate=0 / interlaced=0 / bluray_compat=0 / constrained_intra=0 / bframes=8 / b_pyramid=2 / b_adapt=2 / b_bias=0 / direct=3 / weightb=1 / open_gop=0 / weightp=2 / keyint=250 / keyint_min=25 / scenecut=40 / intra_refresh=0 / rc_lookahead=60 / rc=crf / mbtree=0 / crf=16.0 / qcomp=0.60 / qpmin=0 / qpmax=69 / qpstep=4 / vbv_maxrate=62500 / vbv_bufsize=78125 / crf_max=0.0 / nal_hrd=none / filler=0 / ip_ratio=1.30 / pb_ratio=1.20 / aq=1:0.80
Language : Czech
Default : Yes
Forced : No
Audio #1
ID : 2
Format : AC-3
Format/Info : Audio Coding 3
Mode extension : CM (complete main)
Format settings, Endianness : Big
Codec ID : A_AC3
Duration : 1h 33mn
Bit rate mode : Constant
Bit rate : 192 Kbps
Channel(s) : 2 channels
Channel positions : Front: L R
Sampling rate : 44.1 KHz
Bit depth : 16 bits
Compression mode : Lossy
Stream size : 129 MiB (2%)
Title : (Ирина Гусева)
Language : Russian
Default : Yes
Forced : No
Audio #2
ID : 3
Format : AC-3
Format/Info : Audio Coding 3
Mode extension : CM (complete main)
Format settings, Endianness : Big
Codec ID : A_AC3
Duration : 1h 33mn
Bit rate mode : Constant
Bit rate : 448 Kbps
Channel(s) : 2 channels
Channel positions : Front: L R
Sampling rate : 48.0 KHz
Bit depth : 16 bits
Compression mode : Lossy
Stream size : 301 MiB (5%)
Language : Czech
Default : No
Forced : No
Скриншоты
Скачать

Скачать торрент!

Как скачивать? · Что такое торрент? · Рейтинг и ограничения

Сайт не распространяет и не хранит электронные версии произведений, а лишь предоставляет доступ к создаваемому пользователями каталогу ссылок на торрент-файлы, которые содержат только списки хеш-сумм

[Профиль] [ЛС]
Показать сообщения:    
Ответить на тему

Текущее время: Сегодня 00:42

Часовой пояс: GMT + 4



Вы не можете начинать темы
Вы не можете отвечать на сообщения
Вы не можете редактировать свои сообщения
Вы не можете удалять свои сообщения
Вы не можете голосовать в опросах
Вы не можете прикреплять файлы к сообщениям
Вы не можете скачивать файлы