Тада – мастер на все руки из Махоро / Mahoro ekimae Tada benriken (Тацуси Омори / Tatsushi Ohmori) [2011, Япония, Драма, DVDRip-AVC] VO (gracer)

Ответить на тему
 
Автор Сообщение

user ®

Стаж: 11 лет

Сообщений: 15151

Пост Пост: #1 от 04-Июн-2014 02:30

[Цитировать]

Тада – мастер на все руки из Махоро / Mahoro ekimae Tada benriken
Страна: Япония
Жанр: Драма
Год выпуска: 2011
Продолжительность: 02:03:14
Перевод: Одноголосый закадровый gracer
Cубтитры: нет
Режиссер: Тацуси Омори / Tatsushi Ohmori
В ролях: Эйта, Рюхэй Мацуда, Тасуку Эмото, Манами Хондзё, Рейко Катаока, Иттоку Кисибэ, Кенго Кора, Акадзи Маро
Описание: Махоро — это один из районов Токио, окраина. Не деревня, но и не мегаполис. Именно здесь живет Тада (игра слов, которая означает «за бесплатно») — мастер на все руки, который больше похож на хозяина ресторанчика, где подают рамэн.
Он берется за любую работу: проверяет расписание автобусов, чинит двери, подметает опавшие листья и присматривает за собаками. Однажды, после очередной работенки, он встречает Гётена — своего бывшего одноклассника, который сидит в одних шлепках и ждет автобус.
Так начинается история двух альтруистов, которые, когда по своему желанию, а когда и нет, помогают едва знакомым людям. Частенько, это идет во вред им самим, а, в некоторых случаях, они рискуют своими жизнями.
Сэмпл: http://multi-up.com/977988
Качество видео: DVDRip
Формат видео: MKV
Видео: AVC, 720x400, 16:9, 29,970 fps, 1450 kbps
Аудио: AC-3, 48KHz, 384 kbps, 2.0 ch
Дополнительная информация
Озвучка сделана по субтитрам от Lady Bird
Раздача [url=http://***/forum/viewtopic.php?t=4648953]http://***/forum/viewtopic.php?t=4648953[/url]
MediaInfo
General
Уникальный идентификатор : 182142873314632902076601335584835709342 (0x890770FEC2B68FED8FB30225A65F299E)
Полное имя : Q:\Video\Mahoro Ekimae Tada Benriken 2011 by gracer\Mahoro Ekimae Tada Benriken 2011 RUS DVDRip.mkv
Формат : Matroska
Версия формата : Version 2
Размер файла : 1.58 GiB
Продолжительность : 2h 3mn
Общий поток : 1 836 Kbps
Дата кодирования : UTC 2014-06-03 09:36:47
Программа кодирования : mkvmerge v4.0.0 ('The Stars were mine') сборка от Jun 6 2010 16:18:42
Библиотека кодирования : libebml v1.0.0 + libmatroska v1.0.0
Video
Идентификатор : 1
Формат : AVC
Формат/Информация : Advanced Video Codec
Профиль формата : Baseline@L3.0
Параметр CABAC формата : No
Параметр ReFrames формата : 1 frame
Идентификатор кодека : V_MPEG4/ISO/AVC
Продолжительность : 2h 3mn
Битрейт : 1 450 Kbps
Ширина : 720 pixels
Высота : 400 pixels
Соотношение сторон : 16:9
Режим частоты кадров : Constant
Частота кадров : 29.970 fps
Цветовое пространство : YUV
Субдискретизация насыщенности : 4:2:0
Битовая глубина : 8 bits
Тип развёртки : Progressive
Бит/(Пиксели*Кадры) : 0.168
Размер потока : 1.22 GiB (77%)
Библиотека кодирования : x264 core 112
Настройки программы : cabac=0 / ref=1 / deblock=1:0:0 / analyse=0x1:0x111 / me=dia / subme=1 / psy=1 / psy_rd=0.00:0.00 / mixed_ref=0 / me_range=16 / chroma_me=1 / trellis=0 / 8x8dct=0 / cqm=0 / deadzone=21,11 / fast_pskip=0 / chroma_qp_offset=0 / threads=3 / sliced_threads=0 / nr=0 / decimate=1 / interlaced=0 / constrained_intra=0 / bframes=0 / weightp=0 / keyint=290 / keyint_min=25 / scenecut=0 / intra_refresh=0 / rc_lookahead=40 / rc=abr / mbtree=1 / bitrate=1450 / ratetol=1.0 / qcomp=0.60 / qpmin=10 / qpmax=51 / qpstep=4 / ip_ratio=1.40 / aq=1:1.00
Default : No
Forced : No
Audio
Идентификатор : 2
Формат : AC-3
Формат/Информация : Audio Coding 3
Расширение режима : CM (complete main)
Параметр Endianness формата : Big
Идентификатор кодека : A_AC3
Продолжительность : 2h 3mn
Вид битрейта : Constant
Битрейт : 384 Kbps
Каналы : 2 channels
Расположение каналов : Front: L R
Частота : 48.0 KHz
Битовая глубина : 16 bits
Метод сжатия : Lossy
Размер потока : 339 MiB (21%)
Default : Yes
Forced : No
Скриншот c названием фильма Скриншоты
Скачать

Скачать торрент! Тада – мастер на все руки из Махоро / Mahoro ekimae Tada benriken (Тацуси Омори / Tatsushi Ohmori) [2011, Япония, Драма, DVDRip-AVC] VO (gracer)

Как скачивать? · Что такое торрент? · Рейтинг и ограничения

Сайт не распространяет и не хранит электронные версии произведений, а лишь предоставляет доступ к создаваемому пользователями каталогу ссылок на торрент-файлы, которые содержат только списки хеш-сумм

[Профиль] [ЛС]
Показать сообщения:    
Ответить на тему

Текущее время: Сегодня 09:20

Часовой пояс: GMT + 4



Вы не можете начинать темы
Вы не можете отвечать на сообщения
Вы не можете редактировать свои сообщения
Вы не можете удалять свои сообщения
Вы не можете голосовать в опросах
Вы не можете прикреплять файлы к сообщениям
Вы не можете скачивать файлы