Танго над пропастью (Игорь Талпа) [1997, Боевик, драма, криминальный фильм, SATRip]

Ответить на тему
 
Автор Сообщение

user ®

Стаж: 7 лет 7 месяцев

Сообщений: 20008

Пост Пост: #1 от 04-Июн-2014 02:30

[Цитировать]

Танго над пропастью
Жанр: Боевик, драма, криминальный фильм
Год выпуска: 1997
Продолжительность: 2:13:34
Режиссёр: Игорь Талпа
В ролях: Игорь Волков, Лев Дуров, Юрий Юрченко, Сильвия Лука, Марина Могилевская, Владимир Епископосян, Юрий Сувейкэ, Тимофей Фёдоров, Татьяна Новик, Игорь Гузун, Василе Зубку-Кодряну, Борис Бекет, Анна Макагон, Борис Боровский, Валериу Цуркану, Николай Шумейко, Ион Аракелу, Евгений Мызников, Виктор Сарайкин, Евгения Тудорашку, Василе Тэбырцэ, Юрий Чуприн, Юрий Сувейко
Описание: В 1995 году из Румынии возвращается отставной капитан Вадим вместе с невестой Юлей на родину и попадают в руки бандитов, контролирующих городок. Уже на дорогах отчизны, выбравшейся из социализма и подзавязшей в мафиозном болоте, они становятся свидетелями ограбления бандой в милицейской форме автобуса с "челноками". Заметившие их боевики зверски избили капитана и изнасиловали невесту, и она попадает в психиатрическую больницу. В милиции, как он понял, помощи ждать было не от кого, и крепкий и духовитый "максималист" сам берется за поиски подонков. Руководит бандитами рэкетир и налетчик Сергей. А Вадим - принципиальный, честный и самоуверенный - мстит своим обидчикам, следуя 'букве закона', ради мести, внедряется в банду. Вскоре выясняется, что в банде главным лицом является вовсе не Сергей... Однако праведная месть приводит его к соучастию в преступлениях. Из возникшей ситуации возможны только два выхода: либо оказаться на скамье подсудимых, либо стать частью преступного клана...
"Месть втягивает его в такой круговорот событий, что картина выходит за традиционные рамки жанра о "мстителях". Очень даже неплохой, реалистичный и местами страшный фильм с крепким сюжетам и связными диалогами смотрится на одном дыхании. Главное в нем — не праведное отмщение, а достаточно точная обрисовка жутких обстоятельств, в которых приходится искать свою судьбу нашим людям. К сожалению, реальность заставляет их не верить в закон, а только в себя. Несмотря на некоторые недостатки, оценят ленту и те, кого судьба заставила пойти в бандиты, — "клюквы" мало.
Доп. информация: На видео местами баннеры с названием фильма
Сэмпл:http://www.sendspace.com/file/t4d082
Качество видео: SATRip
Формат видео: AVI
Видео: XviD, 704x528 (1.33:1) , 25 fps , 2009 kbps avg
Аудио: AC3 , 48 kHz , 192.00 kbps avg , 2/0 (L,R) ch
MediaInfo
Complete name : C:\Users\Вовчик\Desktop\Танго над пропастью 1997.avi
Format : AVI
Format/Info : Audio Video Interleave
Format profile : OpenDML
File size : 2.06 GiB
Duration : 2h 13mn
Overall bit rate : 2 208 Kbps
Writing library : VirtualDub build 35491/release
Video
ID : 0
Format : MPEG-4 Visual
Format profile : Advanced Simple@L5
Format settings, BVOP : 2
Format settings, QPel : No
Format settings, GMC : No warppoints
Format settings, Matrix : Default (H.263)
Codec ID : XVID
Codec ID/Hint : XviD
Duration : 2h 13mn
Bit rate : 2 004 Kbps
Width : 704 pixels
Height : 528 pixels
Display aspect ratio : 4:3
Frame rate : 25.000 fps
Color space : YUV
Chroma subsampling : 4:2:0
Bit depth : 8 bits
Scan type : Progressive
Compression mode : Lossy
Bits/(Pixel*Frame) : 0.216
Stream size : 1.87 GiB (91%)
Writing library : XviD 1.2.1 (UTC 2008-12-04)
Audio
ID : 1
Format : AC-3
Format/Info : Audio Coding 3
Mode extension : CM (complete main)
Format settings, Endianness : Big
Codec ID : 2000
Duration : 2h 13mn
Bit rate mode : Constant
Bit rate : 192 Kbps
Channel(s) : 2 channels
Channel positions : Front: L R
Sampling rate : 48.0 KHz
Bit depth : 16 bits
Compression mode : Lossy
Stream size : 183 MiB (9%)
Alignment : Aligned on interleaves
Interleave, duration : 40 ms (1.00 video frame)
Interleave, preload duration : 512 ms
Скриншоты
Скачать

Скачать торрент!

Как скачивать? · Что такое торрент? · Рейтинг и ограничения

Сайт не распространяет и не хранит электронные версии произведений, а лишь предоставляет доступ к создаваемому пользователями каталогу ссылок на торрент-файлы, которые содержат только списки хеш-сумм

[Профиль] [ЛС]
Показать сообщения:    
Ответить на тему

Текущее время: Сегодня 14:35

Часовой пояс: GMT + 4



Вы не можете начинать темы
Вы не можете отвечать на сообщения
Вы не можете редактировать свои сообщения
Вы не можете удалять свои сообщения
Вы не можете голосовать в опросах
Вы не можете прикреплять файлы к сообщениям
Вы не можете скачивать файлы