Смерть и вишневое дерево / Mirtis ir vyšnios medis / Death and the Cherry Tree (Арунас Жебрюнас / Arūnas Žebriūnas) [1968, СССР; Вильнюсское телевидение, Драма, экранизация, TVRip] VO + Sub Rus + Original Lit

Ответить на тему
 
Автор Сообщение

user ®

Стаж: 7 лет 7 месяцев

Сообщений: 20008

Пост Пост: #1 от 04-Июн-2014 02:30

[Цитировать]

Смерть и вишневое дерево / Mirtis ir vyšnios medis / Death and the Cherry Tree
Страна: СССР; Вильнюсское телевидение
Жанр: Драма, экранизация
Год выпуска: 1968
Продолжительность: 00:26:53
Перевод: Одноголосый закадровый
Cубтитры: русские
Оригинальная аудиодорожка: литовский
Режиссер: Арунас Жебрюнас / Arūnas Žebriūnas
В ролях: Инга Мицките, Миша Андриевскис, Ольга Вазлина
Описание: Мощная и одновременно трогательная философская работа Жебрюнаса, снятая по мотивам новеллы английского прозаика Герберта Бейтса.
Доп. информация: Единственный фильм Жебрюнаса, который не был переведен на русский язык.
Сэмпл: http://multi-up.com/978070
Качество видео: TVRip-AVC
Формат видео: MKV
Видео: AVC at 1200 Кбит/сек : 720 x 576 (1.250) at 25.000 fps
Аудио 1: MPEG Audio at 128 Кбит/сек : 2 канала, 44,1 КГц Language: ru
Аудио 2: MPEG Audio at 128 Кбит/сек : 2 канала, 44,1 КГц Language: lt
Формат субтитров: softsub (SRT)
Доп. информация о субтитрах: Русские внешние (перевод: Оксана Добрыня, тайминг: johnnyleo)
MediaInfo
Общее
Уникальный идентификатор : 226579631106473627514996929051255050561 (0xAA75A64E6383E62085B0BA6F4FFB1141)
Полное имя : F:\С моей озвучкой\Смерть и вишневое дерево\Mirtis ir vyšnios medis.mkv
Формат : Matroska
Версия формата : Version 4 / Version 2
Размер файла : 280 Мбайт
Продолжительность : 26 м.
Режим общего битрейта : Постоянный
Общий поток : 1457 Кбит/сек
Дата кодирования : UTC 2014-06-03 20:02:24
Программа кодирования : mkvmerge v6.1.0 ('Old Devil') built on Mar 4 2013 09:10:42
Библиотека кодирования : libebml v1.3.0 + libmatroska v1.4.0
Видео
Идентификатор : 1
Формат : AVC
Формат/Информация : Advanced Video Codec
Профиль формата : High@L3.0
Параметр CABAC формата : Да
Параметр ReFrames формата : 2 кадра
Идентификатор кодека : V_MPEG4/ISO/AVC
Продолжительность : 26 м.
Вид битрейта : Постоянный
Битрейт : 1200 Кбит/сек
Ширина : 720 пикселей
Высота : 576 пикселей
Соотношение сторон : 5:4
Частота кадров : 25,000 кадров/сек
Стандарт вещания : PAL
Цветовое пространство : YUV
Субдискретизация насыщенности : 4:2:0
Битовая глубина : 8 бит
Тип развёртки : Прогрессивная
Бит/(Пиксели*Кадры) : 0.116
Размер потока : 225 Мбайт (80%)
Default : Да
Forced : Нет
Основные цвета : BT.470-6 System B, BT.470-6 System G, BT.601-6 625, BT.1358 625, BT.1700 625 PAL, BT.1700 625 SECAM
Характеристики трансфера : BT.470-6 System B, BT.470-6 System G
Коэффициенты матрицы : BT.470-6 System B, BT.470-6 System G, BT.601-6 625, BT.1358 625, BT.1700 625 PAL, BT.1700 625 SECAM, IEC 61966-2-4 601
Аудио #1
Идентификатор : 2
Формат : MPEG Audio
Версия формата : Version 1
Профиль формата : Layer 3
Режим : Joint stereo
Расширение режима : MS Stereo
Идентификатор кодека : A_MPEG/L3
Идентификатор кодека/Подсказка : MP3
Продолжительность : 26 м.
Вид битрейта : Постоянный
Битрейт : 128 Кбит/сек
Каналы : 2 канала
Частота : 44,1 КГц
Метод сжатия : С потерями
Размер потока : 24,6 Мбайт (9%)
Язык : Russian
Default : Нет
Forced : Нет
Аудио #2
Идентификатор : 3
Формат : MPEG Audio
Версия формата : Version 1
Профиль формата : Layer 3
Идентификатор кодека : A_MPEG/L3
Идентификатор кодека/Подсказка : MP3
Продолжительность : 26 м.
Вид битрейта : Постоянный
Битрейт : 128 Кбит/сек
Каналы : 2 канала
Частота : 44,1 КГц
Метод сжатия : С потерями
Размер потока : 24,6 Мбайт (9%)
Язык : Lithuanian
Default : Нет
Forced : Нет
Скриншоты
Скачать

Скачать торрент!

Как скачивать? · Что такое торрент? · Рейтинг и ограничения

Сайт не распространяет и не хранит электронные версии произведений, а лишь предоставляет доступ к создаваемому пользователями каталогу ссылок на торрент-файлы, которые содержат только списки хеш-сумм

[Профиль] [ЛС]
Показать сообщения:    
Ответить на тему

Текущее время: Сегодня 03:16

Часовой пояс: GMT + 4



Вы не можете начинать темы
Вы не можете отвечать на сообщения
Вы не можете редактировать свои сообщения
Вы не можете удалять свои сообщения
Вы не можете голосовать в опросах
Вы не можете прикреплять файлы к сообщениям
Вы не можете скачивать файлы