Гангста Love / Rob the Mob (Рэймонд Де Фелитта / Raymond De Felitta) [2014, США, Драма, Криминал, WEB-DLRip] Dub

Ответить на тему
 
Автор Сообщение

user ®

Стаж: 7 лет 7 месяцев

Сообщений: 20008

Пост Пост: #1 от 04-Июн-2014 02:30

[Цитировать]

-Гангста Love / Rob the Mob- Страна: США
Жанр: Драма, Криминал
Год выпуска: 2014
Продолжительность: 01:39:55
Перевод: Дублированный перевод (дубляж) - Чистый звук
Cубтитры: нет
Оригинальная аудиодорожка: нет
Режиссер: Рэймонд Де Фелитта / Raymond De Felitta
Студия: The Exchange
В ролях:
Майкл Питт, Нина Арианда, Энди Гарсиа, Рэй Романо, Берт Янг, Гриффин Данн, Майкл Рисполи, Аида Туртурро, Фрэнк Уэйли, Кэти Мориарти, Юл Васкес, Самира Уайли, Гилберт Сото, Мэттью Блумм, Мария Ди Анджелис, Брайан Дистанс, Элиезер Майер, Люк Фава, Айми Маллинз, Гарри Пасторе, Берни Рейчел, Силвестре Расук, Винсент Ривеццо, Джон Торми, Адам Трези, Волиеда Уэбб
Описание:
Парочка молодых влюбленных, мечтая скопить деньги на свадьбу, решает совершить серию дерзких ограблений клубов, где собираются мафиози. Их план прост — чтобы они ни натворили, мафия не будет жаловаться в полицию. Местные «братаны» не могут поверить своим глазам, когда их обчищают до нитки какие-то «сопляки». Больше того, случайно, у них похищают важную улику, которой очень интересуется ФБР. Теперь за налетчиками начинается настоящая охота…

Качество видео: WEB-DLRip
Формат видео: AVI
Видео: Xvid, 720x304, 25fps, 1665kbps
Аудио: Dolby AC3, 44100Hz, 2 channels, 192kbps

MediaInfo
General
Format : AVI
Format/Info : Audio Video Interleave
File size : 1.36 GiB
Duration : 1h 39mn
Overall bit rate : 1 942 Kbps
Writing application : VirtualDubMod 1.5.10.3 | www.virtualdub-fr.org || (build 2550/release)
Writing library : VirtualDubMod build 2550/release
Video
ID : 0
Format : MPEG-4 Visual
Codec ID : XVID
Codec ID/Hint : XviD
Duration : 1h 39mn
Bit rate : 1 665 Kbps
Width : 720 pixels
Height : 304 pixels
Display aspect ratio : 2.35:1
Frame rate : 25.000 fps
Color space : YUV
Chroma subsampling : 4:2:0
Compression mode : Lossy
Bits/(Pixel*Frame) : 0.304
Stream size : 1.16 GiB (86%)
Audio
ID : 1
Format : AC-3
Format/Info : Audio Coding 3
Codec ID : 2000
Duration : 1h 39mn
Bit rate mode : Constant
Bit rate : 192 Kbps
Channel(s) : 2 channels
Sampling rate : 44.1 KHz
Compression mode : Lossy
Stream size : 137 MiB (10%)
Alignment : Aligned on interleaves
Screenshot movie title Screenshots
Скачать

Скачать торрент!

Как скачивать? · Что такое торрент? · Рейтинг и ограничения

Сайт не распространяет и не хранит электронные версии произведений, а лишь предоставляет доступ к создаваемому пользователями каталогу ссылок на торрент-файлы, которые содержат только списки хеш-сумм

[Профиль] [ЛС]
Показать сообщения:    
Ответить на тему

Текущее время: Сегодня 10:55

Часовой пояс: GMT + 4



Вы не можете начинать темы
Вы не можете отвечать на сообщения
Вы не можете редактировать свои сообщения
Вы не можете удалять свои сообщения
Вы не можете голосовать в опросах
Вы не можете прикреплять файлы к сообщениям
Вы не можете скачивать файлы