Любовь сквозь время / Winter\'s Tale (Акива Голдсман / Akiva Goldsman) [2014, США, фэнтези, драма, мелодрама, детектив, WEB-DLRip] Dub

Ответить на тему
 
Автор Сообщение

user ®

Стаж: 7 лет 7 месяцев

Сообщений: 20008

Пост Пост: #1 от 04-Июн-2014 02:30

[Цитировать]

-Любовь сквозь время / Winter's Tale- Страна: США
Жанр: Фэнтези, Драма, Мелодрама, Детектив
Год выпуска: 2014
Продолжительность: 01:58:03
Перевод: Дублированный перевод (дубляж) - Чистый звук
Cубтитры: нет
Оригинальная аудиодорожка: нет
Режиссер: Акива Голдсман / Akiva Goldsman
Студия: Village Roadshow Pictures, Warner Bros. Pictures, Weed Road Pictures
В ролях:
Колин Фаррелл, Джессика Браун-Финдли, Рассел Кроу, Дженнифер Коннелли, Уилл Смит, Уильям Хёрт, МакКайла Твиггс, Ева Мари Сэйнт, Рипли Собо, Кевин Корригэн, Джошуа Генри, Финн Уиттрок, Мэтт Бомер, Люси Гриффитс, Майкл Патрик Крэйн, Брайан Хатчинсон, Грэм Грин, Мэгги Геха, Кевин Дюран, Иоана Альфонсо, Лори Каниок, Кит Кул, Нека Дзан, Джозеф Басиле, Мэттью Броадли, Тим Фэлтер, Эйприл Грэйс, Кори Хоукинс, Тосико Онидзава, Герард Салливан, Расселл Уэст, Элизабет Засин
Описание:
Питер Лэйк — талантливый вор, который и подумать не мог, что его собственное сердце украдет очаровательная Беверли Пенн. Но их любовь родилась под несчастливой звездой: Беверли угасает на глазах от неизлечимой болезни, а Питеру суждена куда более жестокая смерть от рук его давнего наставника, демона Перли Сомса. Питер отчаянно пытается спасти свою истинную любовь: сквозь века, вопреки силам тьмы, несмотря на то, что Перли делает все от него зависящее, чтобы одержать верх, ведь победитель получает все, а проигравший будет проклят навеки.

Качество видео: WEB-DLRip
Формат видео: AVI
Видео: Xvid, 720x304, 23.976fps, 1304kbps
Аудио: Dolby AC3, 48000Hz, 6 channels, 384kbps

MediaInfo
General
Format : AVI
Format/Info : Audio Video Interleave
File size : 1.46 GiB
Duration : 1h 58mn
Overall bit rate : 1 767 Kbps
Writing application : VirtualDubMod 1.5.10.2 (build 2540/release)
Writing library : VirtualDubMod build 2540/release
Video
ID : 0
Format : MPEG-4 Visual
Codec ID : XVID
Codec ID/Hint : XviD
Duration : 1h 58mn
Bit rate : 1 304 Kbps
Width : 720 pixels
Height : 304 pixels
Display aspect ratio : 2.35:1
Frame rate : 23.976 fps
Color space : YUV
Chroma subsampling : 4:2:0
Compression mode : Lossy
Bits/(Pixel*Frame) : 0.249
Stream size : 1.08 GiB (74%)
Audio
ID : 1
Format : AC-3
Format/Info : Audio Coding 3
Codec ID : 2000
Duration : 1h 58mn
Bit rate mode : Constant
Bit rate : 384 Kbps
Channel(s) : 6 channels
Sampling rate : 48.0 KHz
Compression mode : Lossy
Stream size : 324 MiB (22%)
Alignment : Aligned on interleaves
Screenshot movie title Screenshots Сравнение
[url=http://***/forum/viewtopic.php?t=4738152]http://***/forum/viewtopic.php?t=4738152[/url]
http://screenshotcomparison.com/comparison/77418/picture:0
Скачать

Скачать торрент!

Как скачивать? · Что такое торрент? · Рейтинг и ограничения

Сайт не распространяет и не хранит электронные версии произведений, а лишь предоставляет доступ к создаваемому пользователями каталогу ссылок на торрент-файлы, которые содержат только списки хеш-сумм

[Профиль] [ЛС]
Показать сообщения:    
Ответить на тему

Текущее время: Сегодня 03:11

Часовой пояс: GMT + 4



Вы не можете начинать темы
Вы не можете отвечать на сообщения
Вы не можете редактировать свои сообщения
Вы не можете удалять свои сообщения
Вы не можете голосовать в опросах
Вы не можете прикреплять файлы к сообщениям
Вы не можете скачивать файлы