Анатомия любви / Endless Love (Шана Фест / Shana Feste) [2014 г., США, драма, мелодрама, BDRip] Dub + Original + Sub (Rus, Eng)

Ответить на тему
 
Автор Сообщение

user ®

Стаж: 7 лет 7 месяцев

Сообщений: 20008

Пост Пост: #1 от 04-Июн-2014 02:30

[Цитировать]

Анатомия любвиEndless Love-«Она никогда не будет прежней»- Год выпуска: 2014
Страна: США-Жанр: драма, мелодрама
Продолжительность: 01:44:38
Перевод: Профессиональный (полное дублирование)
Субтитры: русские, английские-Режиссер: Шана Фест / Shana Feste
Сценарий: Шана Фест / Shana Feste, Джошуа Сафран / Joshua Safran, Скотт Спенсер / Scott Spencer
Продюсер: Памела Эбди / Pamela Abdy, Стефани Сэвадж / Stephanie Savage, Джош Шварц / Josh Schwartz, Скотт Стубер / Scott Stuber, Майкл Бедерман / Michael Bederman
Оператор: Эндрю Данн / Andrew Dunn
Композитор: Кристоф Бек / Christophe Beck-В ролях: Алекс Петтифер (David Elliot), Габриэлла Уайлд (Jade Butterfield), Брюс Гринвуд (Hugh Butterfield), Джоэли Ричардсон (Anne Butterfield), Роберт Патрик (Harry Elliot), Риз Уэйкфилд (Keith Butterfield), Дайо Окенайи (Mace), Эмма Ригби (Jenny), Анна Энгер (Sabine), Фаббианн Терез (Checka), Майк Блэнд (Harry's Friend), Джейк Шульц (Harry's Friend)
Дублёры: Сергей Смирнов (David Elliot), Евгения Ваган (Jade Butterfield), Владимир Зайцев (Hugh Butterfield), Любовь Германова (Anne Butterfield), Александр Носков (Harry Elliot), Станислав Тикунов (Keith Butterfield), Олег Новиков (Mace), Лина Иванова (Jenny), Екатерина Виноградова (Sabine), Сергей Чихачев (Joe), Владимир Антипов-Описание: Он - далеко не ангел, высокий дерзкий парень, помешанный на тачках. Она - примерная ученица, белокурая красотка из богатой семьи. Их любовь под запретом, а потому вдвойне желанна. Страсть сжигает их дотла и бросает в бездну.-kinopoisk.ru: 6.498 (2488)
imdb.com: 6.30 (9051)
MPAA: PG-13 - Детям до 13 лет просмотр не желателен-Качество: BDRip /
Контейнер: AVI
Видео: 720x304 (2.37:1), 23.976 fps, XviD MPEG-4 ~2077 kbps avg, 0.40 bit/pixel
Аудио: 48 kHz, AC3 Dolby Digital, 3/2 (L,C,R,l,r) + LFE ch, ~448 kbps (Rus)
Аудио: 48 kHz, AC3 Dolby Digital, 3/2 (L,C,R,l,r) + LFE ch, ~448 kbps (Eng)-
-
MediaInfo
General
Complete name                            : E:\Рипы\Endless.Love.2014.BDRip.All.Films\Endless.Love.2014.BDRip.All.Films.avi
Format                                   : AVI
Format/Info                              : Audio Video Interleave
Format profile                           : OpenDML
File size                                : 2.18 GiB
Duration                                 : 1h 44mn
Overall bit rate                         : 2 980 Kbps
Movie name                               : Endless.Love.2014.BDRip.All.Films
Director                                 : DIABLO93
Genre                                    : Drama/Romance
Writing application                      : VirtualDubMod 1.5.10.3 | www.virtualdub-fr.org || (build 2550/release)
Original source form/Name                : Movie
Copyright                                :
Video
ID                                       : 0
Format                                   : MPEG-4 Visual
Format profile                           : Advanced Simple@L5
Format settings, BVOP                    : 2
Format settings, QPel                    : No
Format settings, GMC                     : No warppoints
Format settings, Matrix                  : Custom
Codec ID                                 : XVID
Codec ID/Hint                            : XviD
Duration                                 : 1h 44mn
Bit rate                                 : 2 067 Kbps
Width                                    : 720 pixels
Height                                   : 304 pixels
Display aspect ratio                     : 2.35:1
Frame rate                               : 23.976 fps
Color space                              : YUV
Chroma subsampling                       : 4:2:0
Bit depth                                : 8 bits
Scan type                                : Progressive
Compression mode                         : Lossy
Bits/(Pixel*Frame)                       : 0.394
Stream size                              : 1.51 GiB (69%)
Writing library                          : XviD 65
Audio #1
ID                                       : 1
Format                                   : AC-3
Format/Info                              : Audio Coding 3
Mode extension                           : CM (complete main)
Format settings, Endianness              : Big
Codec ID                                 : 2000
Duration                                 : 1h 44mn
Bit rate mode                            : Constant
Bit rate                                 : 448 Kbps
Channel(s)                               : 6 channels
Channel positions                        : Front: L C R, Side: L R, LFE
Sampling rate                            : 48.0 KHz
Bit depth                                : 16 bits
Compression mode                         : Lossy
Stream size                              : 335 MiB (15%)
Alignment                                : Split accross interleaves
Interleave, duration                     : 42 ms (1.00 video frame)
Interleave, preload duration             : 500 ms
Audio #2
ID                                       : 2
Format                                   : AC-3
Format/Info                              : Audio Coding 3
Mode extension                           : CM (complete main)
Format settings, Endianness              : Big
Codec ID                                 : 2000
Duration                                 : 1h 44mn
Bit rate mode                            : Constant
Bit rate                                 : 448 Kbps
Channel(s)                               : 6 channels
Channel positions                        : Front: L C R, Side: L R, LFE
Sampling rate                            : 48.0 KHz
Bit depth                                : 16 bits
Compression mode                         : Lossy
Stream size                              : 335 MiB (15%)
Alignment                                : Split accross interleaves
Interleave, duration                     : 42 ms (1.00 video frame)
Interleave, preload duration             : 500 ms

-
Сэмпл Скриншоты
Скачать

Скачать торрент!

Как скачивать? · Что такое торрент? · Рейтинг и ограничения

Сайт не распространяет и не хранит электронные версии произведений, а лишь предоставляет доступ к создаваемому пользователями каталогу ссылок на торрент-файлы, которые содержат только списки хеш-сумм

[Профиль] [ЛС]
Показать сообщения:    
Ответить на тему

Текущее время: Сегодня 00:22

Часовой пояс: GMT + 4



Вы не можете начинать темы
Вы не можете отвечать на сообщения
Вы не можете редактировать свои сообщения
Вы не можете удалять свои сообщения
Вы не можете голосовать в опросах
Вы не можете прикреплять файлы к сообщениям
Вы не можете скачивать файлы