300 Спартанцев: Расцвет Империи / 300: Rise Of An Empire (Ноам Мурро / Noam Murro) [2014, США, Боевик, Драма, Военный, WEB-DLRip] DUB [iTunes]

Ответить на тему
 
Автор Сообщение

user ®

Стаж: 7 лет 7 месяцев

Сообщений: 20008

Пост Пост: #1 от 03-Июн-2014 10:00

[Цитировать]

300 спартанцев: Расцвет империи / 300: Rise of an Empire
«Смерти вопреки»
- Страна: США / Atmosphere Entertainment MM LLC, Cruel & Unusual Films, Hollywood Gang Productions, Legendary Pictures, Warner Bros. Pictures
Жанр: Боевик, Драма, Военный
Год выпуска: 2014
Продолжительность: 01:42:46
Перевод: Профессиональный (полное дублирование) [iTunes ]
Cубтитры: нет
Режиссер: Ноам Мурро / Noam Murro
Продюсер: Марк Кантон, Берни Голдманн, Джанни Нуннари
В ролях: Салливан Степлтон, Лина Хиди, Ева Грин, Дэвид Уэнэм, Каллэн Мулвей, Родриго Санторо, Джек О'Коннелл, Ганс Мэтисон, Кэйтлин Кармайкл, Скотт Берн
Описание: После победы над царем Леонидом персидская армия во главе с Ксерксом движется на север. На её пути оказывается флот Афин под руководством адмирала Фемистокла. Силы противников не равны, и Фемистокл вынужден вступить в союз с заклятым врагом афинского государства Спартой. Только объединившись у враждующих полисов-государств есть шанс что-то противопоставить могущественному Ксерксу.-КиноПоиск / IMDB / MPAA : - лицам до 17 лет обязательно присутствие взрослого- -Качество видео: WEB-DLRip [Рип с WEB-DL 720p]
Формат видео: AVI
Видео: 720x304 (2.37:1), 23.976 fps, XviD build 65 ~ 1640 kbps avg, 0.312 bit/pixel
Аудиокодек: Dolby AC3 5.1
Аудио : 48 kHz, AC3 Dolby Digital, 3/2 (L,C,R,l,r) + LFE ch, ~384 kbps
-

Кадры из фильма Mi
Общее
Полное имя : D:\Фильмы\Rip' Release\300.Spartancev.2014.WEB-DLRip.1.46Gb.avi
Формат : AVI
Формат/Информация : Audio Video Interleave
Размер файла : 1,46 Гбайт
Продолжительность : 1 ч. 42 м.
Общий поток : 2033 Кбит/сек
Программа кодирования : VirtualDubMod 1.5.10.2 (build 2540/release)
Библиотека кодирования : VirtualDubMod build 2540/release
Видео
Идентификатор : 0
Формат : MPEG-4 Visual
Профиль формата : Advanced Simple@L5
Параметр BVOP формата : 2
Параметр QPel формата : Нет
Параметр GMC формата : Без точки перехода
Параметр матрицы формата : Выборочная
Идентификатор кодека : XVID
Идентификатор кодека/Подсказка : XviD
Продолжительность : 1 ч. 42 м.
Битрейт : 1640 Кбит/сек
Ширина : 720 пикселей
Высота : 304 пикселя
Соотношение сторон : 2,35:1
Частота кадров : 23,976 кадра/сек
Цветовое пространство : YUV
Субдискретизация насыщенности : 4:2:0
Битовая глубина : 8 бит
Тип развёртки : Прогрессивная
Метод сжатия : С потерями
Бит/(Пиксели*Кадры) : 0.312
Размер потока : 1,18 Гбайт (81%)
Библиотека кодирования : XviD 1.2.1 (UTC 2008-12-04)
Аудио
Идентификатор : 1
Формат : AC-3
Формат/Информация : Audio Coding 3
Расширение режима : CM (complete main)
Идентификатор кодека : 2000
Продолжительность : 1 ч. 42 м.
Вид битрейта : Постоянный
Битрейт : 384 Кбит/сек
Каналы : 6 каналов
Расположение каналов : Front: L C R, Side: L R, LFE
Частота : 48,0 КГц
Битовая глубина : 16 бит
Метод сжатия : С потерями
Размер потока : 282 Мбайт (19%)
Выравнивание : Разделение по промежуткам
Продолжительность промежутка : 42 мс. (1,00 видеокадр)
Время предзагрузки промежутка : 500 мс.
Скачать

Скачать торрент!

Как скачивать? · Что такое торрент? · Рейтинг и ограничения

Сайт не распространяет и не хранит электронные версии произведений, а лишь предоставляет доступ к создаваемому пользователями каталогу ссылок на торрент-файлы, которые содержат только списки хеш-сумм

[Профиль] [ЛС]
Показать сообщения:    
Ответить на тему

Текущее время: Сегодня 14:34

Часовой пояс: GMT + 4



Вы не можете начинать темы
Вы не можете отвечать на сообщения
Вы не можете редактировать свои сообщения
Вы не можете удалять свои сообщения
Вы не можете голосовать в опросах
Вы не можете прикреплять файлы к сообщениям
Вы не можете скачивать файлы