Охотники за сокровищами / The Monuments Men (Джордж Клуни / George Clooney) [2014, США, Германия, военный, драма, комедия, BDRip 720p] Dub (Blu-ray EUR) + Sub (Rus, Ukr, Eng) + Original Eng

Ответить на тему
 
Автор Сообщение

user ®

Стаж: 7 лет 7 месяцев

Сообщений: 20008

Пост Пост: #1 от 02-Июн-2014 23:45

[Цитировать]

Охотники за сокровищами / The Monuments Men
Страна: США, Германия
Студия: Columbia Pictures, Fox 2000 Pictures, Smokehouse Pictures
Жанр: военный, драма, комедия
Год выпуска: 2014
Продолжительность: 01:58:23
Перевод: Профессиональный (дублированный) - Blu-ray EUR
Cубтитры: Russian, Ukrainian, English, Russian (Forced), English (Forced), English (SDH), French, French (Forced), Romanian
Оригинальная аудиодорожка: английский
Режиссер: Джордж Клуни / George Clooney
В ролях: Джордж Клуни, Мэтт Дэймон, Билл Мюррей, Джон Гудман, Жан Дюжарден, Боб Бэлабан, Хью Бонневилль, Кейт Бланшетт, Димитрий Леонидас, Юстус фон Донаньи
Описание: Фильм основан на реальных событиях — величайшей охоте на сокровища в истории. Во время Второй мировой войны команда из искусствоведов и хранителей музеев объединяется, чтобы спасти известные произведения искусства, похищенные нацистами, прежде чем те успеют их уничтожить.
Релиз: madoff
Рип: DON

Сэмпл: http://multi-up.com/977175
Тип релиза: BDRip 720p
Контейнер: MKV
Видео: 1280x534 at 23.976 fps, x264@L4.1, r2377 tMod, ~6700 kbps avg
Аудио Rus: 48 kHz, DTS, 3/2 (L,C,R,l,r) + LFE ch, 768.00 kbps avg |Дубляж, Blu-ray EUR|
Аудио Ukr: 48 kHz, AC3, 3/2 (L,C,R,l,r) + LFE ch, ~448.00 kbps avg |Дубляж, Blu-ray EUR|
Аудио Eng: 48 kHz, DTS, 3/2 (L,C,R,l,r) + LFE ch, 1536.00 kbps avg

Скриншоты MI
General
Unique ID : 212731962254724683804394530528300578205 (0xA00AAF8504EEB9EEA029981B8757359D)
Complete name : D:\Видео\Movies\The.Monuments.Men.2014.720p.BDRip.Rus.Ukr.Eng.HDCLUB.mkv
Format : Matroska
Format version : Version 4 / Version 2
File size : 7.93 GiB
Duration : 1h 58mn
Overall bit rate : 9 586 Kbps
Movie name : The Monuments Men (2014) - Release for HDCLUB
Encoded date : UTC 2014-06-02 12:33:12
Writing application : mkvmerge v6.9.1 ('Blue Panther') 64bit built on Apr 18 2014 18:23:38
Writing library : libebml v1.3.0 + libmatroska v1.4.1
Video
ID : 1
Format : AVC
Format/Info : Advanced Video Codec
Format profile : High@L4.1
Format settings, CABAC : Yes
Format settings, ReFrames : 12 frames
Codec ID : V_MPEG4/ISO/AVC
Duration : 1h 58mn
Bit rate : 6 670 Kbps
Width : 1 280 pixels
Height : 534 pixels
Display aspect ratio : 2.40:1
Frame rate mode : Constant
Frame rate : 23.976 fps
Color space : YUV
Chroma subsampling : 4:2:0
Bit depth : 8 bits
Scan type : Progressive
Bits/(Pixel*Frame) : 0.407
Stream size : 5.52 GiB (70%)
Writing library : x264 core 140 r2377+40 929f149 tMod [8-bit@4:2:0 X86]
Encoding settings : cabac=1 / ref=12 / deblock=1:-3:-3 / analyse=0x3:0x133 / me=tesa / subme=10 / psy=1 / fade_compensate=0.00 / psy_rd=1.20:0.00 / mixed_ref=1 / me_range=24 / chroma_me=1 / trellis=2 / 8x8dct=1 / cqm=0 / deadzone=21,11 / fast_pskip=0 / chroma_qp_offset=-2 / threads=12 / lookahead_threads=3 / sliced_threads=0 / nr=0 / decimate=0 / interlaced=0 / bluray_compat=0 / constrained_intra=0 / fgo=0 / bframes=10 / b_pyramid=2 / b_adapt=2 / b_bias=0 / direct=3 / weightb=1 / open_gop=0 / weightp=2 / keyint=250 / keyint_min=23 / scenecut=40 / intra_refresh=0 / rc=crf / mbtree=0 / crf=16.0000 / qcomp=0.70 / qpmin=0:0:0 / qpmax=69:69:69 / qpstep=4 / ip_ratio=1.30 / pb_ratio=1.10 / aq=4:0.85 / aq-sensitivity=10.00 / aq-factor=1.00:1.00:1.00 / aq2=0 / aq3=0
Language : English
Default : Yes
Forced : No
Audio #1
ID : 2
Format : DTS
Format/Info : Digital Theater Systems
Mode : 16
Format settings, Endianness : Big
Codec ID : A_DTS
Duration : 1h 58mn
Bit rate mode : Constant
Bit rate : 768 Kbps
Channel count : 6 channels
Channel positions : Front: L C R, Side: L R, LFE
Sampling rate : 48.0 KHz
Bit depth : 24 bits
Compression mode : Lossy
Stream size : 650 MiB (8%)
Title : |Дубляж, Blu-Ray EUR|
Language : Russian
Default : Yes
Forced : No
Audio #2
ID : 3
Format : AC-3
Format/Info : Audio Coding 3
Mode extension : CM (complete main)
Format settings, Endianness : Big
Codec ID : A_AC3
Duration : 1h 58mn
Bit rate mode : Constant
Bit rate : 448 Kbps
Channel count : 6 channels
Channel positions : Front: L C R, Side: L R, LFE
Sampling rate : 48.0 KHz
Bit depth : 16 bits
Compression mode : Lossy
Stream size : 379 MiB (5%)
Title : |Дубляж, Blu-Ray EUR|
Language : Ukrainian
Default : No
Forced : No
Audio #3
ID : 4
Format : DTS
Format/Info : Digital Theater Systems
Mode : 16
Format settings, Endianness : Big
Codec ID : A_DTS
Duration : 1h 58mn
Bit rate mode : Constant
Bit rate : 1 509 Kbps
Channel count : 6 channels
Channel positions : Front: L C R, Side: L R, LFE
Sampling rate : 48.0 KHz
Bit depth : 24 bits
Compression mode : Lossy
Stream size : 1.25 GiB (16%)
Language : English
Default : No
Forced : No
Text #1
ID : 5
Format : UTF-8
Codec ID : S_TEXT/UTF8
Codec ID/Info : UTF-8 Plain Text
Title : Russian-Forced
Language : Russian
Default : Yes
Forced : No
Text #2
ID : 6
Format : UTF-8
Codec ID : S_TEXT/UTF8
Codec ID/Info : UTF-8 Plain Text
Language : Russian
Default : No
Forced : No
Text #3
ID : 7
Format : UTF-8
Codec ID : S_TEXT/UTF8
Codec ID/Info : UTF-8 Plain Text
Language : Ukrainian
Default : No
Forced : No
Text #4
ID : 8
Format : UTF-8
Codec ID : S_TEXT/UTF8
Codec ID/Info : UTF-8 Plain Text
Language : English
Default : No
Forced : No
Text #5
ID : 9
Format : UTF-8
Codec ID : S_TEXT/UTF8
Codec ID/Info : UTF-8 Plain Text
Title : SDH
Language : English
Default : No
Forced : No
Text #6
ID : 10
Format : UTF-8
Codec ID : S_TEXT/UTF8
Codec ID/Info : UTF-8 Plain Text
Title : French
Language : French
Default : No
Forced : No
Text #7
ID : 11
Format : UTF-8
Codec ID : S_TEXT/UTF8
Codec ID/Info : UTF-8 Plain Text
Title : English-Forced
Language : English
Default : No
Forced : No
Text #8
ID : 12
Format : UTF-8
Codec ID : S_TEXT/UTF8
Codec ID/Info : UTF-8 Plain Text
Title : French-Forced
Language : French
Default : No
Forced : No
Text #9
ID : 13
Format : UTF-8
Codec ID : S_TEXT/UTF8
Codec ID/Info : UTF-8 Plain Text
Language : Romanian
Default : No
Forced : No
Menu
00:00:00.000 : :Chapter 1
00:04:41.573 : :Chapter 2
00:16:01.961 : :Chapter 3
00:20:13.963 : :Chapter 4
00:23:37.458 : :Chapter 5
00:27:12.840 : :Chapter 6
00:31:36.812 : :Chapter 7
00:40:37.977 : :Chapter 8
00:50:40.579 : :Chapter 9
00:53:31.375 : :Chapter 10
00:59:36.448 : :Chapter 11
01:00:52.816 : :Chapter 12
01:17:06.914 : :Chapter 13
01:21:50.531 : :Chapter 14
01:33:08.333 : :Chapter 15
01:46:26.672 : :Chapter 16
Скачать

Скачать торрент!

Как скачивать? · Что такое торрент? · Рейтинг и ограничения

Сайт не распространяет и не хранит электронные версии произведений, а лишь предоставляет доступ к создаваемому пользователями каталогу ссылок на торрент-файлы, которые содержат только списки хеш-сумм

[Профиль] [ЛС]
Показать сообщения:    
Ответить на тему

Текущее время: Сегодня 18:26

Часовой пояс: GMT + 4



Вы не можете начинать темы
Вы не можете отвечать на сообщения
Вы не можете редактировать свои сообщения
Вы не можете удалять свои сообщения
Вы не можете голосовать в опросах
Вы не можете прикреплять файлы к сообщениям
Вы не можете скачивать файлы