Триумф двух искусств кунг-фу / Триумф стилей кунг-фу / Triump by Two Kungfu Arts / Lang zi di shi san / Shi fu chu ma (Цзун Чжэнхуань / Chung Jeng-Huan) [1980, Тайвань, боевые искусства, DVDRip] AVO (Сергей Кузнецов)

Ответить на тему
 
Автор Сообщение

user ®

Стаж: 11 лет

Сообщений: 15151

Пост Пост: #1 от 02-Июн-2014 02:55

[Цитировать]

Триумф двух искусств кунг-фу / Триумф стилей кунг-фу / Triump by Two Kungfu Arts / Lang zi di shi san / Shi fu chu ma
Страна: Тайвань
Жанр: боевые искусства
Год выпуска: 1980
Продолжительность: 01:25:02
Перевод: Авторский (одноголосый закадровый) Сергей Кузнецов
Cубтитры: нет
Режиссер: Цзун Чжэнхуань / Chung Jeng-Huan
В ролях: Лян Сюшэнь, Гуй Ялэй, Майкл Чан, Кам Кон, Тин Куоксин, Чау Сиулой, Лу Илун, Ма Чан, Лон Чи
Описание: Главный герой, не желающий видеться с матушкой после смерти своего отца, вёл праздный образ жизни - напивался и бездельничал. Так продолжалось в течение пяти лет. Но в один прекрасный день он встречает мать, и она его упрекает в том, что сынок не собирается мстить за смерть родителя, убитого злым и коварным мастером кунг-фу. Наш герой проникается идеей мести, обретает смысл жизни, и начинает осваивать приемы боевых искусств, дабы насладиться мщением.
Благодарность: За исходник благодарность выражается шурик 555.
Сэмпл: http://multi-up.com/977490
Качество видео: DVDRip
Формат видео: AVI
Видео: 688x288 (2.39:1), 25 fps, XviD build 50 ~2260 kbps avg, 0.46 bit/pixel
Аудио: 48 kHz, AC3 Dolby Digital, 2/0 (L,R) ch, ~192 kbps
MediaInfo
Format : AVI
Format/Info : Audio Video Interleave
File size : 1,46 Гбайт
Duration : 1 ч. 25 м.
Overall bit rate : 2463 Кбит/сек
Writing application : VirtualDubMod 1.5.10.3 | www.virtualdub-fr.org || (build 2550/release)
Writing library : VirtualDubMod build 2550/release
Видео
ID : 0
Format : MPEG-4 Visual
Format profile : Advanced Simple@L5
Format settings, BVOP : 2
Format settings, QPel : Нет
Format settings, GMC : Без точки перехода
Format settings, Matrix : Default (MPEG)
Codec ID : XVID
Codec ID/Hint : XviD
Duration : 1 ч. 25 м.
Bit rate : 2261 Кбит/сек
Width : 688 пикселей
Height : 288 пикселей
Display aspect ratio : 2,40:1
Frame rate : 25,000 кадров/сек
Color space : YUV
Chroma subsampling : 4:2:0
Bit depth : 8 бит
Scan type : Прогрессивная
Compression mode : С потерями
Bits/(Pixel*Frame) : 0.456
Stream size : 1,34 Гбайт (92%)
Writing library : XviD 1.2.1 (UTC 2008-12-04)
Аудио
ID : 1
Format : AC-3
Format/Info : Audio Coding 3
Mode extension : CM (complete main)
Format settings, Endianness : Big
Codec ID : 2000
Duration : 1 ч. 25 м.
Bit rate mode : Постоянный
Bit rate : 192 Кбит/сек
Channel(s) : 2 канала
Channel positions : Front: L R
Sampling rate : 48,0 КГц
Bit depth : 16 бит
Compression mode : С потерями
Stream size : 117 Мбайт (8%)
Alignment : Разделение по промежуткам
Interleave, duration : 40 мс. (1,00 видеокадр)
Interleave, preload duration : 500 мс.
Скриншот c названием фильма Скриншоты
Скачать

Скачать торрент! Триумф двух искусств кунг-фу / Триумф стилей кунг-фу / Triump by Two Kungfu Arts / Lang zi di shi san / Shi fu chu ma (Цзун Чжэнхуань / Chung Jeng-Huan) [1980, Тайвань, боевые искусства, DVDRip] AVO (Сергей Кузнецов)

Как скачивать? · Что такое торрент? · Рейтинг и ограничения

Сайт не распространяет и не хранит электронные версии произведений, а лишь предоставляет доступ к создаваемому пользователями каталогу ссылок на торрент-файлы, которые содержат только списки хеш-сумм

[Профиль] [ЛС]
Показать сообщения:    
Ответить на тему

Текущее время: Сегодня 05:02

Часовой пояс: GMT + 4



Вы не можете начинать темы
Вы не можете отвечать на сообщения
Вы не можете редактировать свои сообщения
Вы не можете удалять свои сообщения
Вы не можете голосовать в опросах
Вы не можете прикреплять файлы к сообщениям
Вы не можете скачивать файлы