Малефисента / Maleficent (Роберт Стромберг / Robert Stromberg) [2014, США, фэнтези, боевик, мелодрама, приключения, семейный, CamRip] Dub

Ответить на тему
 
Автор Сообщение

user ®

Стаж: 7 лет 7 месяцев

Сообщений: 20008

Пост Пост: #1 от 02-Июн-2014 02:55

[Цитировать]

-Малефисента / Maleficent- Страна: США
Жанр: Фэнтези, Боевик, Мелодрама, Приключения, Семейный
Год выпуска: 2014
Продолжительность: 01:27:29
Перевод: Профессиональный (дублированный)
Оригинальная аудиодорожка: нет
Cубтитры: нет
Режиссер: Роберт Стромберг / Robert Stromberg
Студия: The Moving Picture Company, Roth Films, Walt Disney Pictures
В ролях:
Анджелина Джоли, Эль Фаннинг, Шарлто Копли, Сэм Райли, Имелда Стонтон, Джуно Темпл, Лесли Мэнвилл, Брентон Туэйтс, Кеннет Крэнэм, Изобель Моллой, Ханна Нью, Элла Пернелл, Джексон Бьюз, Оливер Молтман, Гари Каргилл, Стивен Чейз, Марк Кавен, Крис Линей, Джэми МакЛахлан, Вивьен Джоли-Питт, Джон Макмилла, Тим Трелоа, Марама Корлетт, Стивен Кри, Джанет МакТир, Гай Поттер, Ласко Аткинс, Джеймс Айлинг, Альфред Кэмп, Шарлотта Чаттон, Стефани Элстоб, Крэйг Гарнер, Кара Лили Хэйуорт, Мэтт Хукингс, Чери Джером, Жоао Коста Менезес, Джо Осмонд, Эндрю Джеймс, Джулиан Сигер, Том Свача, Джермейн Тинделл, Кристиан Вольф-Ля’Мой.
Описание:
Юная волшебница Малефисента вела уединенную жизнь в зачарованном лесу, окруженная сказочными существами, но однажды все изменилось… В её мир вторглись люди, которые принесли с собой разрушение и хаос, и Малефисенте пришлось встать на защиту своих подданных, призвав на помощь могущественные тёмные силы. В пылу борьбы Малефисента наложила страшное заклятие на новорожденную дочь короля, прекрасную Аврору. Но, наблюдая за тем, как растет маленькая принцесса, Малефисента начинает сомневаться в правильности своего поступка — ведь, возможно, именно Аврора может вдохнуть новую жизнь в волшебное лесное царство.
Сэмпл: Скачать

Качество видео: CamRip
Формат видео: AVI
Видео: Xvid, 720x304, 23.976fps, 1948kbps
Аудио: MP3, 44100Hz, 2 channels, 192kbp

MediaInfo
General
Format : AVI
Format/Info : Audio Video Interleave
File size : 1.37 GiB
Duration : 1h 27mn
Overall bit rate : 2 237 Kbps
Writing application : VirtualDubMod 1.5.10.2 (build 2540/release)
Writing library : VirtualDubMod build 2540/release
Video
ID : 0
Format : MPEG-4 Visual
Codec ID : XVID
Codec ID/Hint : XviD
Duration : 1h 27mn
Bit rate : 1 948 Kbps
Width : 720 pixels
Height : 304 pixels
Display aspect ratio : 2.35:1
Frame rate : 23.976 fps
Color space : YUV
Chroma subsampling : 4:2:0
Compression mode : Lossy
Bits/(Pixel*Frame) : 0.371
Stream size : 1.19 GiB (87%)
Audio
ID : 1
Format : MPEG Audio
Codec ID : 55
Codec ID/Hint : MP3
Duration : 1h 27mn
Bit rate : 192 Kbps
Channel(s) : 2 channels
Sampling rate : 44.1 KHz
Compression mode : Lossy
Stream size : 120 MiB (9%)
Alignment : Aligned on interleaves
Screenshot movie title Screenshots
Скачать

Скачать торрент!

Как скачивать? · Что такое торрент? · Рейтинг и ограничения

Сайт не распространяет и не хранит электронные версии произведений, а лишь предоставляет доступ к создаваемому пользователями каталогу ссылок на торрент-файлы, которые содержат только списки хеш-сумм

[Профиль] [ЛС]
Показать сообщения:    
Ответить на тему

Текущее время: Сегодня 19:39

Часовой пояс: GMT + 4



Вы не можете начинать темы
Вы не можете отвечать на сообщения
Вы не можете редактировать свои сообщения
Вы не можете удалять свои сообщения
Вы не можете голосовать в опросах
Вы не можете прикреплять файлы к сообщениям
Вы не можете скачивать файлы