Проклятье 2 / Sadako 2 (Цутому Ханабуса / Tsutomu Hanabusa) [2013, Япония, ужасы, HDRip] Dub

Ответить на тему
 
Автор Сообщение

user ®

Стаж: 11 лет

Сообщений: 15151

Пост Пост: #1 от 01-Июн-2014 21:40

[Цитировать]

Проклятье 3D 2 / Sadako 3D 2
Страна: Япония
Жанр: ужасы
Год выпуска: 2013
Продолжительность: 01:35:51
Перевод: Профессиональный (дублированный) Лицензия
Cубтитры: нет
Оригинальная аудиодорожка: нет
Режиссер: Цутому Ханабуса / Tsutomu Hanabusa
В ролях: Сатоми Исихара, Юсуке Ямамото, Миори Такимото, Коджи Сето, Кокоро Хиросава
Описание: Молодая аспирантка Фуко воспитывает свою маленькую племянницу, мать которой умерла при родах. Девочка растет крайне замкнутой и постоянно что-то рисует. В городе происходит цепь несчастных случаев. По странному стечению обстоятельств все они как-то связаны с племянницей Фуко, которая либо оказывалась рядом, либо предвидела эти случаи в своих рисунках. Что все это значит? Как связана маленькая девочка с этими трагедиями, и не угрожает ли опасность всем, кто находится рядом с ней?
Сэмпл: http://multi-up.com/977422
Качество видео: HDRip
Формат видео: AVI
Видео: 688x384 (1.79:1), 23.976 fps, XviD MPEG-4 ~953 kbps avg, 0.15 bit/pixel
Аудио: 48 kHz, MPEG Layer 3, 2 ch, ~128.00 kbps avg
MediaInfo
General
Complete name : C:\Proklyatie.2.2013.HDRip.avi
Format : AVI
Format/Info : Audio Video Interleave
File size : 748 MiB
Duration : 1h 35mn
Overall bit rate : 1 091 Kbps
Writing application : VirtualDubMod 1.5.10.2 (build 2540/release)
Writing library : VirtualDubMod build 2540/release
Video
ID : 0
Format : MPEG-4 Visual
Format profile : Advanced Simple@L5
Format settings, BVOP : Yes
Format settings, QPel : No
Format settings, GMC : No warppoints
Format settings, Matrix : Custom
Codec ID : XVID
Codec ID/Hint : XviD
Duration : 1h 35mn
Bit rate : 953 Kbps
Width : 688 pixels
Height : 384 pixels
Display aspect ratio : 16:9
Frame rate : 23.976 fps
Color space : YUV
Chroma subsampling : 4:2:0
Bit depth : 8 bits
Scan type : Progressive
Compression mode : Lossy
Bits/(Pixel*Frame) : 0.151
Stream size : 654 MiB (87%)
Writing library : XviD 73
Audio
ID : 1
Format : MPEG Audio
Format version : Version 1
Format profile : Layer 3
Mode : Joint stereo
Mode extension : MS Stereo
Codec ID : 55
Codec ID/Hint : MP3
Duration : 1h 35mn
Bit rate mode : Constant
Bit rate : 128 Kbps
Channel count : 2 channels
Sampling rate : 48.0 KHz
Compression mode : Lossy
Stream size : 87.8 MiB (12%)
Alignment : Aligned on interleaves
Interleave, duration : 42 ms (1.00 video frame)
Interleave, preload duration : 504 ms
Скриншот c названием фильма Скриншоты
Скачать

Скачать торрент! Проклятье 2 / Sadako 2 (Цутому Ханабуса / Tsutomu Hanabusa) [2013, Япония, ужасы, HDRip] Dub

Как скачивать? · Что такое торрент? · Рейтинг и ограничения

Сайт не распространяет и не хранит электронные версии произведений, а лишь предоставляет доступ к создаваемому пользователями каталогу ссылок на торрент-файлы, которые содержат только списки хеш-сумм

[Профиль] [ЛС]
Показать сообщения:    
Ответить на тему

Текущее время: Сегодня 23:33

Часовой пояс: GMT + 4



Вы не можете начинать темы
Вы не можете отвечать на сообщения
Вы не можете редактировать свои сообщения
Вы не можете удалять свои сообщения
Вы не можете голосовать в опросах
Вы не можете прикреплять файлы к сообщениям
Вы не можете скачивать файлы