Годзилла / Godzilla (Роланд Эммерих / Roland Emmerich) [1998, США, Япония, фантастика, боевик, триллер, BDRip 1080p] [4K Remastered] DUB + 2x AVO (Гаврилов, Живов) + 2x MVO + Ukr + Sub Rus, Eng + Original Eng + Comm

Ответить на тему
 
Автор Сообщение

user ®

Стаж: 7 лет 7 месяцев

Сообщений: 20008

Пост Пост: #1 от 01-Июн-2014 21:40

[Цитировать]

Годзилла / Godzilla
Страна: США, Япония
Студия: Sony Pictures
Жанр: фантастика, боевик, триллер
Год выпуска: 1998
Продолжительность: 02:18:43
Перевод 1: Профессиональный (дублированный)
Перевод 2: Авторский (одноголосый, закадровый) Гаврилов
Перевод 3: Авторский (одноголосый, закадровый) Живов
Перевод 4: Профессиональный (многоголосый, закадровый) ОРТ
Перевод 5: Профессиональный (многоголосый, закадровый) ВидеоСервис
Оригинальная аудиодорожка: английский
Субтитры: Русские, английские
Режиссер: Роланд Эммерих / Roland Emmerich
В ролях: Мэттью Бродерик, Жан Рено, Мария Питилло, Хэнк Азария, Кевин Данн, Майкл Лернер, Гарри Ширер, Арабелла Филд, Викки Льюис, Даг Сэвант
Описание: Из тихоокеанских джунглей на Нью — Йорк надвинулась страшная катастрофа. На глазах у потрясенных жителей рушатся небоскребы, переворачиваются автобусы, уходят под землю целые кварталы. Но это не ураган и не землетрясение. Это — Годзилла, самое ужасное чудовище в истории.
Для него человеческая цивилизация — лишь жалкий муравейник, дома — спичечные коробки, вертолеты — назойливые стрекозы. Мегаполису грозит полное уничтожение. Армия, оснащенная по последнему слову техники, не в силах противостоять гигантской ящерице. Небольшой группе смельчаков предстоит выяснить, зачем Годзилла пришел в Нью — Йорк. Возможно, тогда им удастся спасти город…
Сэмпл: http://yadi.sk/d/yTfoJCqKRiPgY
Тип релиза: BDRip 1080p
Контейнер: MKV
Видео: AVC 1920x804 (2.40:1) 23.976 fps ~11200 Kbps
Аудио 1: RUS AC3 6ch 48 kHz 640 kbps 16-bit | Дубляж
Аудио 2: RUS DTS 6ch 48 kHz 1536 kbps 24-bit | А.Гаврилов
Аудио 3: RUS DTS 6ch 48 kHz 1536 kbps 24-bit | Ю.Живов
Аудио 4: RUS AC3 2ch 48 kHz 192 kbps 16-bit | ОРТ
Аудио 5: RUS AC3 2ch 48 kHz 192 kbps 16-bit | ВидеоСервис
Аудио 6: UKR AC3 6ch 48 kHz 448 kbps 16-bit | К1, "ТакТребаПродакшн"
Аудио 7: ENG DTS 6ch 48 kHz 1536 kbps 24-bit | Оригинал
Аудио 8: ENG VORBIS 2ch 48 kHz 80kbps | Комментарии
Субтитры: русские, английские

MediaInfo
General
Unique ID                                : 252378171846059269632459761522540730655 (0xBDDE44919BAC970AB5CCFB22F06ED91F)
Complete name                            : D:\Movies\Godzilla.1998.Mastered.4K.BluRay.1080p.AC3.DTS.x264.mkv
Format                                   : Matroska
Format version                           : Version 4 / Version 2
File size                                : 16.7 GiB
Duration                                 : 2h 18mn
Overall bit rate mode                    : Variable
Overall bit rate                         : 17.3 Mbps
Movie name                               : Godzilla.1998.Mastered.4K.BluRay.1080p.DTS.x264
Encoded date                             : UTC 2014-05-30 12:49:50
Writing application                      : mkvmerge v6.9.1 ('Blue Panther') 64bit built on Apr 18 2014 18:23:38
Writing library                          : libebml v1.3.0 + libmatroska v1.4.1
Video
ID                                       : 1
Format                                   : AVC
Format/Info                              : Advanced Video Codec
Format profile                           : High@L4.1
Format settings, CABAC                   : Yes
Format settings, ReFrames                : 5 frames
Codec ID                                 : V_MPEG4/ISO/AVC
Duration                                 : 2h 18mn
Bit rate                                 : 11.2 Mbps
Width                                    : 1 920 pixels
Height                                   : 804 pixels
Display aspect ratio                     : 2.40:1
Frame rate mode                          : Constant
Frame rate                               : 23.976 fps
Color space                              : YUV
Chroma subsampling                       : 4:2:0
Bit depth                                : 8 bits
Scan type                                : Progressive
Bits/(Pixel*Frame)                       : 0.303
Stream size                              : 10.5 GiB (63%)
Title                                    : Godzilla 1998 Mastered 4K BluRay 1080p
Writing library                          : x264 core 133 r2334+704+50 a7549b7 tMod [8-bit@4:2:0 X86_64]
Encoding settings                        : cabac=1 / ref=5 / deblock=1:-3:-3 / analyse=0x3:0x113 / me=umh / subme=10 / psy=1 / fade_compensate=0.00 / psy_rd=1.01:0.00 / mixed_ref=1 / me_range=32 / chroma_me=1 / trellis=2 / 8x8dct=1 / cqm=0 / deadzone=21,11 / fast_pskip=1 / chroma_qp_offset=-2 / threads=16 / lookahead_threads=2 / sliced_threads=0 / nr=0 / decimate=1 / interlaced=0 / bluray_compat=0 / constrained_intra=0 / fgo=0 / bframes=8 / b_pyramid=2 / b_adapt=2 / b_bias=0 / direct=3 / weightb=1 / open_gop=0 / weightp=2 / keyint=240 / keyint_min=23 / scenecut=40 / intra_refresh=0 / rc_lookahead=60 / rc=2pass / mbtree=1 / bitrate=11199 / ratetol=1.0 / qcomp=0.70 / qpmin=0 / qpmax=69 / qpstep=4 / cplxblur=20.0 / qblur=0.5 / vbv_maxrate=50000 / vbv_bufsize=50000 / nal_hrd=none / ip_ratio=1.30 / aq=2:0.80 / aq-sensitivity=10.00 / aq-factor=1.00:1.00:1.00 / aq2=0 / aq3=0
Language                                 : English
Default                                  : Yes
Forced                                   : No
Audio #1
ID                                       : 2
Format                                   : AC-3
Format/Info                              : Audio Coding 3
Mode extension                           : CM (complete main)
Format settings, Endianness              : Big
Codec ID                                 : A_AC3
Duration                                 : 2h 18mn
Bit rate mode                            : Constant
Bit rate                                 : 640 Kbps
Channel count                            : 6 channels
Channel positions                        : Front: L C R, Side: L R, LFE
Sampling rate                            : 48.0 KHz
Bit depth                                : 16 bits
Compression mode                         : Lossy
Stream size                              : 635 MiB (4%)
Title                                    : AC3 5.1 640 kbps Dub
Language                                 : Russian
Default                                  : Yes
Forced                                   : No
Audio #2
ID                                       : 3
Format                                   : DTS
Format/Info                              : Digital Theater Systems
Mode                                     : 16
Format settings, Endianness              : Big
Codec ID                                 : A_DTS
Duration                                 : 2h 18mn
Bit rate mode                            : Constant
Bit rate                                 : 1 510 Kbps
Channel count                            : 6 channels
Channel positions                        : Front: L C R, Side: L R, LFE
Sampling rate                            : 48.0 KHz
Bit depth                                : 24 bits
Compression mode                         : Lossy
Stream size                              : 1.46 GiB (9%)
Title                                    : DTS 5.1 1536 kbps Gavrilov
Language                                 : Russian
Default                                  : No
Forced                                   : No
Audio #3
ID                                       : 4
Format                                   : DTS
Format/Info                              : Digital Theater Systems
Mode                                     : 16
Format settings, Endianness              : Big
Codec ID                                 : A_DTS
Duration                                 : 2h 18mn
Bit rate mode                            : Constant
Bit rate                                 : 1 510 Kbps
Channel count                            : 6 channels
Channel positions                        : Front: L C R, Side: L R, LFE
Sampling rate                            : 48.0 KHz
Bit depth                                : 24 bits
Compression mode                         : Lossy
Stream size                              : 1.46 GiB (9%)
Title                                    : DTS 5.1 1536 kbps Jivov
Language                                 : Russian
Default                                  : No
Forced                                   : No
Audio #4
ID                                       : 5
Format                                   : AC-3
Format/Info                              : Audio Coding 3
Mode extension                           : CM (complete main)
Format settings, Endianness              : Big
Codec ID                                 : A_AC3
Duration                                 : 2h 18mn
Bit rate mode                            : Constant
Bit rate                                 : 192 Kbps
Channel count                            : 2 channels
Channel positions                        : Front: L R
Sampling rate                            : 48.0 KHz
Bit depth                                : 16 bits
Compression mode                         : Lossy
Stream size                              : 191 MiB (1%)
Title                                    : AC3 2.0 192 kbps MVO "ORT Channel"
Language                                 : Russian
Default                                  : No
Forced                                   : No
Audio #5
ID                                       : 6
Format                                   : AC-3
Format/Info                              : Audio Coding 3
Mode extension                           : CM (complete main)
Format settings, Endianness              : Big
Codec ID                                 : A_AC3
Duration                                 : 2h 18mn
Bit rate mode                            : Constant
Bit rate                                 : 192 Kbps
Channel count                            : 2 channels
Channel positions                        : Front: L R
Sampling rate                            : 48.0 KHz
Bit depth                                : 16 bits
Compression mode                         : Lossy
Stream size                              : 191 MiB (1%)
Title                                    : AC3 2.0 192 kbps MVO "Videoservice"
Language                                 : Russian
Default                                  : No
Forced                                   : No
Audio #6
ID                                       : 7
Format                                   : AC-3
Format/Info                              : Audio Coding 3
Mode extension                           : CM (complete main)
Format settings, Endianness              : Big
Codec ID                                 : A_AC3
Duration                                 : 2h 18mn
Bit rate mode                            : Constant
Bit rate                                 : 448 Kbps
Channel count                            : 6 channels
Channel positions                        : Front: L C R, Side: L R, LFE
Sampling rate                            : 48.0 KHz
Bit depth                                : 16 bits
Compression mode                         : Lossy
Stream size                              : 445 MiB (3%)
Title                                    : AC3 5.1 448 kbps MVO "K1 TakTrebaSound"
Language                                 : Ukrainian
Default                                  : No
Forced                                   : No
Audio #7
ID                                       : 8
Format                                   : DTS
Format/Info                              : Digital Theater Systems
Mode                                     : 16
Format settings, Endianness              : Big
Codec ID                                 : A_DTS
Duration                                 : 2h 18mn
Bit rate mode                            : Constant
Bit rate                                 : 1 509 Kbps
Channel count                            : 6 channels
Channel positions                        : Front: L C R, Side: L R, LFE
Sampling rate                            : 48.0 KHz
Bit depth                                : 24 bits
Compression mode                         : Lossy
Stream size                              : 1.46 GiB (9%)
Title                                    : DTS 5.1 1536 kbps Original
Language                                 : English
Default                                  : No
Forced                                   : No
Audio #8
ID                                       : 9
Format                                   : Vorbis
Format settings, Floor                   : 1
Codec ID                                 : A_VORBIS
Duration                                 : 2h 18mn
Bit rate mode                            : Variable
Bit rate                                 : 80.0 Kbps
Channel count                            : 2 channels
Sampling rate                            : 48.0 KHz
Compression mode                         : Lossy
Stream size                              : 79.4 MiB (0%)
Title                                    : Commentary Track - Vorbis 2.0 80 kbps
Writing library                          : libVorbis 1.2 (UTC 2007-06-22)
Language                                 : English
Default                                  : No
Forced                                   : No
Text #1
ID                                       : 10
Format                                   : UTF-8
Codec ID                                 : S_TEXT/UTF8
Codec ID/Info                            : UTF-8 Plain Text
Title                                    : Forced Russian
Language                                 : Russian
Default                                  : Yes
Forced                                   : No
Text #2
ID                                       : 11
Format                                   : UTF-8
Codec ID                                 : S_TEXT/UTF8
Codec ID/Info                            : UTF-8 Plain Text
Title                                    : Full Russian
Language                                 : Russian
Default                                  : No
Forced                                   : No
Text #3
ID                                       : 12
Format                                   : UTF-8
Codec ID                                 : S_TEXT/UTF8
Codec ID/Info                            : UTF-8 Plain Text
Title                                    : English
Language                                 : English
Default                                  : No
Forced                                   : No
Text #4
ID                                       : 13
Format                                   : UTF-8
Codec ID                                 : S_TEXT/UTF8
Codec ID/Info                            : UTF-8 Plain Text
Title                                    : Commentary
Language                                 : English
Default                                  : No
Forced                                   : No
Menu
00:00:00.000                             : en:00:00:00.000
00:07:48.426                             : en:00:07:48.426
00:17:25.461                             : en:00:17:25.461
00:25:28.235                             : en:00:25:28.235
00:36:53.837                             : en:00:36:53.837
00:41:48.214                             : en:00:41:48.214
00:48:19.730                             : en:00:48:19.730
01:01:35.942                             : en:01:01:35.942
01:11:06.095                             : en:01:11:06.095
01:21:38.685                             : en:01:21:38.685
01:30:26.212                             : en:01:30:26.212
01:39:14.157                             : en:01:39:14.157
01:50:24.159                             : en:01:50:24.159
01:52:28.659                             : en:01:52:28.659
02:00:36.771                             : en:02:00:36.771
02:05:56.883                             : en:02:05:56.883
Скриншоты
Сравнение с [url=http://***/forum/viewtopic.php?t=2495780]этой[/url] раздачей
(слева данный рип, справа рип от HDC из раздачи по ссылке)










Скачать

Скачать торрент!

Как скачивать? · Что такое торрент? · Рейтинг и ограничения

Сайт не распространяет и не хранит электронные версии произведений, а лишь предоставляет доступ к создаваемому пользователями каталогу ссылок на торрент-файлы, которые содержат только списки хеш-сумм

[Профиль] [ЛС]
Показать сообщения:    
Ответить на тему

Текущее время: Сегодня 00:23

Часовой пояс: GMT + 4



Вы не можете начинать темы
Вы не можете отвечать на сообщения
Вы не можете редактировать свои сообщения
Вы не можете удалять свои сообщения
Вы не можете голосовать в опросах
Вы не можете прикреплять файлы к сообщениям
Вы не можете скачивать файлы