Дневник слабака 3: Дни собаки / Diary Of A Wimpy Kid: Dog Days (Дэвид Бауэрс / David Bowers) [2012, США, Канада, комедия, семейный, HDTV 1080i] MVO (1 канал)

Ответить на тему
 
Автор Сообщение

user ®

Стаж: 7 лет 7 месяцев

Сообщений: 20008

Пост Пост: #1 от 01-Июн-2014 15:20

[Цитировать]

Дневник Слабака 3: Дни собаки / Diary Of A Wimpy Kid: Dog Days
Страна: США, Канада
Жанр: комедия, семейный
Год выпуска: 2012
Продолжительность: 01:26:04
Перевод: Профессиональный (многоголосый закадровый) 1канал
Cубтитры: нет
Оригинальная аудиодорожка: нет
Режиссер: Дэвид Бауэрс / David Bowers
В ролях: Захари Гордан, Стив Зан, Роберт Капрон, Рэйчел Харрис, Пейтон Лист, Кевин Джеймс, Эми Эстерль, Расселл Робертс, Девон Бостик, Каран Брэр, Лэйн МакНил, Эмили Холмс, Энн Опеншоу, Альф Хамфриз
Описание: Школа закончилась и Грэг готов к теплым летним денькам. Точнее был готов до того момента, когда все его далеко идущие планы на лето в одночасье накрылись медным тазом. Чем же он теперь будет заниматься все лето?
Доп. информация: HDTV имеет иное наполнение кадра, чем BD http://screenshotcomparison.com/comparison/75831
Сэмпл: http://yadi.sk/d/bvE_f1S1RjSEv
Качество видео: HDTV 1080i
Формат видео: AVI
Видео: AVC, 1920x1080 (16/9), 25.000 fps, 13.3 Mbps (0.257 bit/pixel)
Аудио: MP2, 48.0 KHz, 2 ch, 192 Kbps, CBR (Russian)
MediaInfo
Общее
Идентификатор : 3 (0x3)
Полное имя : K:\Дневник слабака 3. Дни собаки.ts
Формат : MPEG-TS
Размер файла : 8,73 Гбайт
Продолжительность : 1 ч. 26 м.
Режим общего битрейта : Переменный
Общий поток : 14,5 Мбит/сек
Видео
Идентификатор : 2141 (0x85D)
Идентификатор меню : 21004 (0x520C)
Формат : AVC
Формат/Информация : Advanced Video Codec
Профиль формата : Main@L4.0
Параметр CABAC формата : Да
Параметр ReFrames формата : 3 кадра
Идентификатор кодека : 27
Продолжительность : 1 ч. 26 м.
Битрейт : 13,6 Мбит/сек
Ширина : 1920 пикселей
Высота : 1080 пикселей
Соотношение сторон : 16:9
Частота кадров : 25,000 кадров/сек
Стандарт вещания : Component
Цветовое пространство : YUV
Субдискретизация насыщенности : 4:2:0
Битовая глубина : 8 бит
Тип развёртки : Чересстрочная
Порядок развёртки : Верхнее поле первое
Бит/(Пиксели*Кадры) : 0.262
Размер потока : 8,18 Гбайт (94%)
Основные цвета : BT.709
Характеристики трансфера : BT.709
Коэффициенты матрицы : BT.709
Аудио
Идентификатор : 2142 (0x85E)
Идентификатор меню : 21004 (0x520C)
Формат : MPEG Audio
Версия формата : Version 1
Профиль формата : Layer 2
Идентификатор кодека : 4
Продолжительность : 1 ч. 26 м.
Вид битрейта : Постоянный
Битрейт : 192 Кбит/сек
Каналы : 2 канала
Частота : 48,0 КГц
Метод сжатия : С потерями
Размер потока : 118 Мбайт (1%)
Язык : Russian
Скриншоты
Скачать

Скачать торрент!

Как скачивать? · Что такое торрент? · Рейтинг и ограничения

Сайт не распространяет и не хранит электронные версии произведений, а лишь предоставляет доступ к создаваемому пользователями каталогу ссылок на торрент-файлы, которые содержат только списки хеш-сумм

[Профиль] [ЛС]
Показать сообщения:    
Ответить на тему

Текущее время: Сегодня 00:17

Часовой пояс: GMT + 4



Вы не можете начинать темы
Вы не можете отвечать на сообщения
Вы не можете редактировать свои сообщения
Вы не можете удалять свои сообщения
Вы не можете голосовать в опросах
Вы не можете прикреплять файлы к сообщениям
Вы не можете скачивать файлы