Жизнь дерьмо / Life Stinks (Мэл Брукс / Mel Brooks) [1991, США, комедия, мелодрама, WEB-DL 720p] 2 x MVO + AVO (Михалев) + Sub Rus, Eng + Original Eng

Ответить на тему
 
Автор Сообщение

user ®

Стаж: 7 лет 7 месяцев

Сообщений: 20008

Пост Пост: #1 от 01-Июн-2014 15:20

[Цитировать]

Жизнь дерьмо / Life Stinks Страна: США
Жанр: комедия, мелодрама
Год выпуска: 1991
Продолжительность: 01:31:59
Перевод 1: Профессиональный (многоголосый закадровый)
Перевод 2: Профессиональный (многоголосый закадровый)
Перевод 3: Авторский (одноголосый закадровый) Михалев
Cубтитры: русские, английские
Оригинальная аудиодорожка: английский
Режиссер: Мэл Брукс
В ролях: Мел Брукс, Лесли Энн Уоррен, Джеффри Тэмбор, Стюарт Пэнкин, Хауард Моррис, Руди Де Лука, Тедди Уилсон, Майкл Инсайн, Мэттью Фэйзон
Описание: Бедные мечтают о богатстве, а миллионеры, как явствует из многочисленных американских фильмов, не прочь окунуться в нищету, грязь и вонючее дерьмо. Мэл Брукс играет одного из таких богатеев, который заключает пари, что сможет целый месяц просуществовать среди отбросов общества, не имея в начале этого социального эксперимента ни цента в кармане. Разумеется, герой фильма не только открывает для себя новые «горизонты» жизни, сталкиваясь с бесправием и беззаконием, но и познает красоту человеческого духа, беспредельную доброту и самоотверженность убогих и нищих. Здесь ему даже удается найти свою любовь!
Сэмпл: [url=http://www.mediafire.com/watch/65pp7zzb7gfy92t/%5B1991%5D_Life_Stinks_(NEW]mediafire[/url]
Тип релиза: WEB-DL 720p
Контейнер: MKV
Видео: AVC, 1280x688, 23.976 fps, 4058 kbps
Аудио #1: AC3, 48000Hz, 6ch, 448kbps MVO1
Аудио #2: AC3, 48000Hz, 6ch, 448kbps ENG
Аудио #3: AC3, 48000Hz, 2ch, 192kbps MVO2 || Отдельно
Аудио #4: AC3, 48000Hz, 2ch, 192kbps AVO || Отдельно
Субтитры: softsub (SRT) вшитые
MediaInfo
General
Unique ID : 179721498625655059233001570435978161435 (0x87351A017F05792A9F16C4271E82ED1B)
Complete name : F:\[1991] Life Stinks.mkv
Format : Matroska
Format version : Version 4 / Version 2
File size : 3.25 GiB
Duration : 1h 31mn
Overall bit rate : 5 054 Kbps
Encoded date : UTC 2014-05-30 19:16:01
Writing application : mkvmerge v6.9.1 ('Blue Panther') 64bit built on Apr 18 2014 18:23:38
Writing library : libebml v1.3.0 + libmatroska v1.4.1
Video
ID : 1
Format : AVC
Format/Info : Advanced Video Codec
Format profile : High@L3.1
Format settings, CABAC : No
Format settings, ReFrames : 2 frames
Codec ID : V_MPEG4/ISO/AVC
Duration : 1h 31mn
Bit rate : 4 058 Kbps
Width : 1 280 pixels
Height : 688 pixels
Display aspect ratio : 1.860
Frame rate : 23.976 fps
Color space : YUV
Chroma subsampling : 4:2:0
Bit depth : 8 bits
Scan type : Progressive
Bits/(Pixel*Frame) : 0.192
Stream size : 2.61 GiB (80%)
Title : WEB-DL 720p by fozzy412
Language : English
Color primaries : BT.709-5, BT.1361, IEC 61966-2-4, SMPTE RP177
Transfer characteristics : BT.709-5, BT.1361
Matrix coefficients : BT.709-5, BT.1361, IEC 61966-2-4 709, SMPTE RP177
Audio #1
ID : 2
Format : AC-3
Format/Info : Audio Coding 3
Mode extension : CM (complete main)
Codec ID : A_AC3
Duration : 1h 31mn
Bit rate mode : Constant
Bit rate : 448 Kbps
Channel(s) : 6 channels
Channel positions : Front: L C R, Side: L R, LFE
Sampling rate : 48.0 KHz
Bit depth : 16 bits
Compression mode : Lossy
Stream size : 295 MiB (9%)
Title : RUS 5.1
Language : Russian
Audio #2
ID : 3
Format : AC-3
Format/Info : Audio Coding 3
Mode extension : CM (complete main)
Codec ID : A_AC3
Duration : 1h 31mn
Bit rate mode : Constant
Bit rate : 448 Kbps
Channel(s) : 6 channels
Channel positions : Front: L C R, Side: L R, LFE
Sampling rate : 48.0 KHz
Bit depth : 16 bits
Compression mode : Lossy
Stream size : 295 MiB (9%)
Title : ENG 5.1
Language : English
Text #1
ID : 4
Format : UTF-8
Codec ID : S_TEXT/UTF8
Codec ID/Info : UTF-8 Plain Text
Title : Субтитры
Language : Russian
Text #2
ID : 5
Format : UTF-8
Codec ID : S_TEXT/UTF8
Codec ID/Info : UTF-8 Plain Text
Title : Субтитры
Language : English
Скриншоты
Скачать

Скачать торрент!

Как скачивать? · Что такое торрент? · Рейтинг и ограничения

Сайт не распространяет и не хранит электронные версии произведений, а лишь предоставляет доступ к создаваемому пользователями каталогу ссылок на торрент-файлы, которые содержат только списки хеш-сумм

[Профиль] [ЛС]
Показать сообщения:    
Ответить на тему

Текущее время: Сегодня 08:11

Часовой пояс: GMT + 4



Вы не можете начинать темы
Вы не можете отвечать на сообщения
Вы не можете редактировать свои сообщения
Вы не можете удалять свои сообщения
Вы не можете голосовать в опросах
Вы не можете прикреплять файлы к сообщениям
Вы не можете скачивать файлы